<?xml version="1.0" encoding="UTF-8" standalone="no"?>
<svg
   xmlns:dc="http://purl.org/dc/elements/1.1/"
   xmlns:cc="http://web.resource.org/cc/"
   xmlns:rdf="http://www.w3.org/1999/02/22-rdf-syntax-ns#"
   xmlns:svg="http://www.w3.org/2000/svg"
   xmlns="http://www.w3.org/2000/svg"
   xmlns:sodipodi="http://sodipodi.sourceforge.net/DTD/sodipodi-0.dtd"
   xmlns:inkscape="http://www.inkscape.org/namespaces/inkscape"
   xml:space="preserve"
   width="297mm"
   height="210mm"
   style="shape-rendering:geometricPrecision; text-rendering:geometricPrecision; image-rendering:optimizeQuality; fill-rule:evenodd; clip-rule:evenodd"
   viewBox="0 0 297 210"
   id="svg2">
 <defs
   id="defs4">
  <font
   id="FontID0"
   font-variant="normal"
   style="fill-rule:nonzero"
   font-style="normal"
   font-weight="400">
	<font-face
   font-family="Arial"
   id="font-face7">
	</font-face>
   <missing-glyph
   id="missing-glyph9"><path
     d="M0 0z"
     id="path11" /></missing-glyph>
   <glyph
   unicode="/"
   horiz-adv-x="277"
   id="glyph13"><path
     d="M0 -12.1687l207.496 740.165 70.3395 0 -207.01 -740.165 -70.8255 0z"
     id="path15" /></glyph>
   <glyph
   unicode="."
   horiz-adv-x="277"
   id="glyph17"><path
     d="M90.8299 0l0 100.164 100.164 0 0 -100.164 -100.164 0z"
     id="path19" /></glyph>
   <glyph
   unicode="-"
   horiz-adv-x="333"
   id="glyph21"><path
     d="M31.667 214.825l0 88.3395 270.161 0 0 -88.3395 -270.161 0z"
     id="path23" /></glyph>
   <glyph
   unicode=","
   horiz-adv-x="277"
   id="glyph25"><path
     d="M88.8254 0l0 100.164 100.184 0 0 -100.164c0,-36.8301 -6.51967,-66.4925 -19.5185,-89.1697 -13.1608,-22.4949 -33.8334,-39.9887 -61.9976,-52.5016l-24.4994 37.6805c18.5061,8.15971 32.1732,20.1664 41.001,35.8177 8.84812,15.8335 13.667,38.5106 14.6794,68.1731l-49.8492 0z"
     id="path27" /></glyph>
   <glyph
   unicode="+"
   horiz-adv-x="583"
   id="glyph29"><path
     d="M250.501 115.674l0 196.319 -194.841 0 0 82.0021 194.841 0 0 194.841 82.9942 0 0 -194.841 194.841 0 0 -82.0021 -194.841 0 0 -196.319 -82.9942 0z"
     id="path31" /></glyph>
   <glyph
   unicode="*"
   horiz-adv-x="389"
   id="glyph33"><path
     d="M31.343 584.503l22.3329 69.3272c51.8334,-18.3239 89.3316,-33.9954 112.819,-47.3385 -6.15522,58.839 -9.49604,99.3339 -9.82,121.505l70.8255 0c-0.992124,-32.1529 -4.65691,-72.506 -11.1766,-120.999 33.5095,16.8459 71.8379,32.4971 115.167,46.8323l22.5151 -69.3272c-41.3452,-13.667 -81.8401,-22.8391 -121.505,-27.334 19.8222,-17.3318 47.8244,-48.0066 83.8243,-92.3283l-58.4948 -41.5072c-18.8301,25.6737 -41.163,60.6613 -66.8367,105.003 -24.1552,-45.8402 -45.334,-80.8277 -63.4959,-105.003l-57.6647 41.5072c37.8424,46.4881 64.8323,77.3249 81.0099,92.3283 -42.0134,8.15971 -81.8401,17.1698 -119.5,27.334z"
     id="path35" /></glyph>
   <glyph
   unicode=")"
   horiz-adv-x="333"
   id="glyph37"><path
     d="M123.509 -210.492l-63.01 0c97.3294,156.33 146.004,312.661 146.004,469.335 0,61.1472 -7.00561,121.829 -20.9966,182.166 -11.0146,48.6546 -26.5039,95.6488 -46.3464,140.497 -12.6546,29.3183 -38.8346,78.1551 -78.6612,146.49l63.01 0c61.1675,-81.6579 106.481,-163.66 135.82,-246.006 25.0056,-70.9875 37.4982,-145.154 37.4982,-222.661 0,-87.9953 -16.8256,-172.832 -50.4971,-254.996 -33.6715,-82.0021 -74.6725,-153.658 -122.821,-214.825z"
     id="path39" /></glyph>
   <glyph
   unicode="("
   horiz-adv-x="333"
   id="glyph41"><path
     d="M233.837 -210.492c-48.5128,61.1675 -89.5139,132.823 -123.003,214.825 -33.5095,82.164 -50.3351,167.001 -50.3351,254.996 0,77.5071 12.4927,151.673 37.6602,222.661 29.3385,82.3463 74.5105,164.348 135.678,246.006l62.9897 0c-39.3205,-67.6669 -65.3182,-115.997 -77.9931,-144.992 -20.0045,-44.8278 -35.4937,-91.8423 -46.9943,-140.679 -14.0112,-60.8233 -20.9966,-121.991 -20.9966,-183.482 0,-156.675 48.6546,-313.005 145.984,-469.335l-62.9897 0z"
     id="path43" /></glyph>
   <glyph
   unicode="'"
   horiz-adv-x="190"
   id="glyph45"><path
     d="M66.3306 462.33l-22.3329 133.835 0 119.662 100.002 0 0 -119.662 -23.325 -133.835 -54.3441 0z"
     id="path47" /></glyph>
   <glyph
   unicode="&amp;"
   horiz-adv-x="666"
   id="glyph49"><path
     d="M475.167 84.4925c-28.9943,-32.3351 -60.6613,-56.4903 -94.8389,-72.4858 -34.1574,-16.1777 -71.1697,-24.1754 -110.834,-24.1754 -73.1539,0 -131.325,24.6614 -174.33,74.1663 -34.8256,40.3329 -52.1574,85.5049 -52.1574,135.334 0,44.1596 14.1529,84.1685 42.6613,119.844 28.5084,35.6557 71.0077,66.9987 127.66,93.9885 -32.1529,37.0123 -53.6557,67.1607 -64.3261,90.344 -10.8324,23.0011 -16.1574,45.334 -16.1574,66.8165 0,43.0055 16.8256,80.3418 50.4971,112.171 33.6512,31.667 76.1506,47.5005 127.154,47.5005 48.8368,0 88.8457,-15.0033 120.006,-44.8278 30.9988,-30.0067 46.5083,-66.0066 46.5083,-108 0,-68.0111 -45.01,-126.162 -135.172,-174.33l128.328 -163.498c14.6591,28.6501 26.1597,61.8356 34.1777,99.4958l91.3159 -19.4983c-15.6513,-62.5038 -36.6681,-113.831 -63.4959,-154.164 33.0033,-43.6737 70.1776,-80.3418 111.847,-110.004l-59.001 -69.8334c-35.514,22.8391 -72.1821,56.4903 -109.842,101.156zm-178.825 372.998c38.1664,22.5151 62.8278,42.1754 73.9841,59.1832 11.3386,16.8256 16.8459,35.4937 16.8459,56.1664 0,24.3172 -7.67377,44.3216 -23.1631,59.6692 -15.5095,15.4893 -34.6838,23.325 -57.8469,23.325 -23.8312,0 -43.4915,-7.67377 -59.325,-23.0011 -15.8335,-15.3273 -23.6692,-33.9954 -23.6692,-56.1664 0,-10.9944 2.83464,-22.6569 8.50392,-35.0078 5.66928,-12.1687 14.3352,-24.9853 25.6535,-38.6523l39.0168 -45.5162zm123.651 -303.651l-161.149 199.66c-47.5005,-28.3261 -79.6736,-54.668 -96.1753,-78.8232 -16.6636,-24.3374 -25.0056,-48.3508 -25.0056,-71.9998 0,-29.0146 11.6625,-59.1832 34.6636,-90.344 23.1833,-31.3228 55.8424,-46.8323 98.1798,-46.8323 26.3217,0 53.6557,8.15971 81.8198,24.6614 28.1844,16.3397 50.6793,37.6805 67.6669,63.6781z"
     id="path51" /></glyph>
   <glyph
   unicode="%"
   horiz-adv-x="889"
   id="glyph53"><path
     d="M58.1708 544.008c0,50.983 12.8369,94.4947 38.4904,130.333 25.6737,35.8177 63.01,53.6557 111.847,53.6557 44.9898,0 82.164,-15.9955 111.482,-47.9864 29.5005,-32.1732 44.3419,-79.3497 44.3419,-141.509 0,-60.4993 -15.0033,-107.17 -44.8278,-139.829 -29.6625,-32.6793 -66.3306,-48.9988 -110.004,-48.9988 -43.3295,0 -79.3294,15.9955 -108.162,48.3306 -28.8323,32.1732 -43.1675,80.8277 -43.1675,146.004zm152.828 123.489c-21.8267,0 -39.9887,-9.49604 -54.5061,-28.3261 -14.4972,-18.8301 -21.6647,-53.5139 -21.6647,-104.011 0,-45.8199 7.32957,-78.1551 21.847,-96.9852 14.6591,-18.6681 32.8211,-28.0022 54.3238,-28.0022 22.0089,0 40.3329,9.49604 54.83,28.3261 14.4972,18.8301 21.847,53.3317 21.847,103.505 0,46.1641 -7.34981,78.6612 -22.0089,97.3294 -14.6591,18.8301 -33.0033,28.1642 -54.668,28.1642zm0.506186 -693.839l391.504 754.338 71.3317 0 -390.168 -754.338 -72.668 0zm309.502 194.335c0,51.3475 12.8166,95.0009 38.4904,130.677 25.8357,35.4937 63.172,53.3317 112.333,53.3317 45.01,0 82.164,-15.9955 111.665,-48.0066 29.3385,-32.1529 44.1799,-79.1674 44.1799,-141.327 0,-60.6613 -15.0033,-107.17 -44.6658,-140.011 -29.8447,-32.6591 -66.6748,-48.9988 -110.672,-48.9988 -43.3295,0 -79.3294,16.1777 -108.162,48.5128 -28.8323,32.4971 -43.1675,80.9897 -43.1675,145.822zm153.334 123.509c-22.1709,0 -40.5151,-9.49604 -55.0122,-28.3261 -14.4972,-18.8504 -21.6647,-53.5139 -21.6647,-104.011 0,-45.496 7.32957,-77.8311 22.0089,-96.6612 14.6591,-18.8301 32.6591,-28.3464 54.1619,-28.3464 22.4949,0 41.001,9.51629 55.3362,28.3464 14.4972,18.8301 21.8267,53.3317 21.8267,103.505 0,46.1641 -7.32957,78.6612 -21.9887,97.4913 -14.6794,18.6681 -32.8413,28.0022 -54.668,28.0022z"
     id="path55" /></glyph>
   <glyph
   unicode="$"
   horiz-adv-x="556"
   id="glyph57"><path
     d="M249.003 -102.999l0 87.8333c-43.9977,5.5073 -79.6736,15.3273 -107.17,29.5005 -27.496,14.1732 -51.3272,37.1743 -71.3317,68.659 -20.0045,31.667 -31.667,70.1776 -34.8256,115.674l88.3193 16.6636c6.84363,-47.1562 18.8301,-81.8401 36.1619,-103.991 24.6816,-31.343 54.3441,-48.6748 88.8457,-52.1776l0 279.678c-36.1619,6.82338 -73.0122,20.8346 -110.834,41.9932 -28.0022,15.6715 -49.505,37.3362 -64.6703,64.9942 -15.1653,27.6782 -22.6569,59.001 -22.6569,94.1708 0,62.5038 22.1507,113.163 66.3306,151.835 29.6625,26.1597 73.6601,41.9932 131.831,47.8244l0 42.0134 51.8334 0 0 -42.0134c51.0033,-4.81889 91.6601,-19.8222 121.505,-44.8278 38.4904,-31.8289 61.4914,-75.6646 69.3272,-131.325l-90.8299 -13.667c-5.16309,34.5016 -15.9955,60.9852 -32.4971,79.3294 -16.3397,18.3239 -38.8346,30.4926 -67.5049,36.3239l0 -253.336c44.1596,-11.1563 73.4981,-19.8222 87.8333,-25.9977 27.334,-11.9865 49.6669,-26.6659 66.8367,-43.8154 17.3318,-17.352 30.6546,-37.8424 39.8267,-61.5117 9.33406,-23.8312 13.991,-49.505 13.991,-77.1629 0,-61.0055 -19.4983,-111.665 -58.1506,-152.342 -38.6726,-40.8188 -88.8457,-62.5038 -150.337,-65.5004l0 -88.8254 -51.8334 0zm0 769.503c-34.1777,-5.16309 -61.1675,-18.8301 -80.8277,-41.001 -19.6805,-22.1709 -29.5005,-48.3306 -29.5005,-78.6612 0,-29.8447 8.32169,-55.0122 25.1675,-75.1787 16.8256,-20.1664 45.1518,-36.3239 85.1607,-48.3306l0 243.172zm51.8334 -607.342c34.1574,4.17097 62.3216,19.0123 84.6545,44.3419 22.3329,25.3295 33.5095,56.8345 33.5095,94.3327 0,31.8289 -7.99773,57.5027 -23.6692,76.839 -15.8335,19.316 -47.3385,36.6478 -94.4947,51.9954l0 -267.509z"
     id="path59" /></glyph>
   <glyph
   unicode="#"
   horiz-adv-x="556"
   id="glyph61"><path
     d="M50.3351 -12.1687l42.4993 208.002 -82.5083 0 0 72.668 97.1674 0 35.9999 177.327 -133.167 0 0 72.668 147.847 0 42.4993 209.5 73.3362 0 -42.4993 -209.5 153.82 0 42.3374 209.5 73.8424 0 -42.4993 -209.5 84.4925 0 0 -72.668 -99.1719 0 -36.6681 -177.327 135.84 0 0 -72.668 -150.499 0 -42.3374 -208.002 -73.3362 0 42.0134 208.002 -153.334 0 -42.4993 -208.002 -73.1742 0zm130.333 280.67l153.334 0 36.6681 177.327 -153.84 0 -36.1619 -177.327z"
     id="path63" /></glyph>
   <glyph
   unicode="&quot;"
   horiz-adv-x="354"
   id="glyph65"><path
     d="M70.3395 462.33l-24.4994 136.346 0 117.152 100.164 0 0 -117.152 -22.0089 -136.346 -53.6557 0zm161.655 0l-23.9932 136.346 0 117.152 100.164 0 0 -117.152 -23.5073 -136.346 -52.6635 0z"
     id="path67" /></glyph>
   <glyph
   unicode="!"
   horiz-adv-x="277"
   id="glyph69"><path
     d="M112.839 177.671l-26.8481 379.497 0 158.659 108.85 0 0 -158.659 -25.3498 -379.497 -56.6523 0zm-23.0011 -177.671l0 100.164 101.156 0 0 -100.164 -101.156 0z"
     id="path71" /></glyph>
   <glyph
   unicode=" "
   horiz-adv-x="277"
   id="glyph73" />
   <glyph
   unicode="?"
   horiz-adv-x="556"
   id="glyph75"><path
     d="M230.497 176.335c-0.323959,11.6625 -0.506186,20.4904 -0.506186,26.3419 0,34.4814 4.83913,64.3261 14.6794,89.3316 7.16759,18.8301 18.6681,37.8222 34.6636,57.1585 11.6625,13.991 32.8413,34.3396 63.172,61.1675 30.4926,26.9898 50.1529,48.3306 59.325,64.3261 9.17208,15.8335 13.667,33.3475 13.667,52.1776 0,34.1574 -13.3228,64.1641 -39.9887,90.1618 -26.6659,25.8357 -59.5072,38.8346 -98.1798,38.8346 -37.4982,0 -68.659,-11.8245 -93.6646,-35.1698 -25.1675,-23.5073 -41.5072,-60.1551 -49.3227,-110.004l-90.344 10.8324c8.15971,66.6748 32.3351,117.84 72.506,153.334 40.1709,35.514 93.3204,53.1697 159.327,53.1697 69.9953,0 125.838,-18.9921 167.507,-57.1585 41.6692,-38.0044 62.5038,-84.0066 62.5038,-138.168 0,-31.1608 -7.34981,-59.9931 -22.0089,-86.335 -14.6591,-26.3419 -43.1675,-58.4948 -85.8288,-96.1753 -28.6704,-25.4915 -47.3385,-44.1596 -56.1664,-56.1664 -8.82788,-12.1687 -15.3273,-25.9977 -19.4983,-41.487 -4.33295,-15.6715 -6.68165,-41.001 -7.32957,-76.1708l-84.5127 0zm-5.32507 -176.335l0 100.164 100.002 0 0 -100.164 -100.002 0z"
     id="path77" /></glyph>
   <glyph
   unicode="&gt;"
   horiz-adv-x="583"
   id="glyph79"><path
     d="M528.842 313.005l-474.174 -202.677 0 87.5094 375.509 155.662 -375.509 154.326 0 87.3474 474.174 -200.166 0 -82.0021z"
     id="path81" /></glyph>
   <glyph
   unicode="="
   horiz-adv-x="583"
   id="glyph83"><path
     d="M528.336 420.843l-472.676 0 0 82.164 472.676 0 0 -82.164zm0 -217.174l-472.676 0 0 82.0021 472.676 0 0 -82.0021z"
     id="path85" /></glyph>
   <glyph
   unicode="&lt;"
   horiz-adv-x="583"
   id="glyph87"><path
     d="M54.668 313.005l0 82.0021 474.174 200.166 0 -87.3474 -376.015 -154.326 376.015 -155.662 0 -87.5094 -474.174 202.677z"
     id="path89" /></glyph>
   <glyph
   unicode=";"
   horiz-adv-x="277"
   id="glyph91"><path
     d="M88.8254 418.494l0 100.002 100.184 0 0 -100.002 -100.184 0zm0 -418.494l0 100.164 100.184 0 0 -100.164c0,-36.8301 -6.51967,-66.4925 -19.5185,-89.1697 -13.1608,-22.4949 -33.8334,-39.9887 -61.9976,-52.5016l-24.4994 37.6805c18.5061,8.15971 32.1732,20.1664 41.001,35.8177 8.84812,15.8335 13.667,38.5106 14.6794,68.1731l-49.8492 0z"
     id="path93" /></glyph>
   <glyph
   unicode=":"
   horiz-adv-x="277"
   id="glyph95"><path
     d="M90.3238 418.494l0 100.002 100.184 0 0 -100.002 -100.184 0zm0 -418.494l0 100.164 100.184 0 0 -100.164 -100.184 0z"
     id="path97" /></glyph>
   <glyph
   unicode="9"
   horiz-adv-x="556"
   id="glyph99"><path
     d="M54.668 165.502l84.4925 7.83575c7.16759,-39.6647 20.8346,-68.497 41.001,-86.497 20.1664,-17.838 46.0021,-26.8481 77.6691,-26.8481 27.0101,0 50.6793,6.17546 71.0077,18.6681 20.3284,12.3307 36.992,28.8323 49.9909,49.505 13.1608,20.6726 24.0134,48.6748 32.8413,83.6624 8.6659,35.1698 13.1608,71.0077 13.1608,107.514 0,3.82676 -0.161979,9.82 -0.506186,17.4938 -17.6558,-27.8402 -41.649,-50.6793 -71.9998,-68.0111 -30.4926,-17.4938 -63.4959,-26.1597 -98.8277,-26.1597 -59.325,0 -109.498,21.5028 -150.499,64.5083 -41.001,42.9853 -61.4914,99.4958 -61.4914,169.835 0,72.6478 21.3205,131.001 64.1641,175.322 42.8233,44.3419 96.4992,66.4925 160.987,66.4925 46.5083,0 89.0077,-12.6546 127.68,-37.6602 38.4904,-25.0056 67.8289,-60.8233 87.8333,-107.17 20.0045,-46.3261 29.9864,-113.487 29.9864,-201.502 0,-91.3159 -9.82,-164.166 -29.6625,-218.49 -20.0045,-54.1619 -49.505,-95.3451 -88.6635,-123.671 -39.3407,-28.3261 -85.1607,-42.4993 -138.006,-42.4993 -55.9841,0 -101.662,15.5095 -137.156,46.6703 -35.4937,30.9988 -56.8345,74.6725 -64.0021,131.001zm359.837 316.002c0,50.3351 -13.3431,90.506 -40.1709,119.986 -27.0101,29.6827 -59.163,44.5038 -97.0054,44.5038 -38.9965,0 -72.992,-15.9955 -101.986,-47.8244 -29.0146,-32.0112 -43.5117,-73.3362 -43.5117,-123.995 0,-45.6782 13.829,-82.6702 41.3452,-111.179 27.496,-28.4881 61.3294,-42.6613 101.662,-42.6613 40.8188,0 74.1663,14.1732 100.326,42.6613 26.3419,28.5084 39.3407,68.0111 39.3407,118.508z"
     id="path101" /></glyph>
   <glyph
   unicode="8"
   horiz-adv-x="556"
   id="glyph103"><path
     d="M176.841 388.163c-36.5061,13.3431 -63.5162,32.3351 -81.1719,57.1787 -17.4938,24.6614 -26.3419,54.3238 -26.3419,88.8254 0,52.1574 18.6681,95.8311 56.1664,131.325 37.4982,35.514 87.1652,53.3317 149.345,53.3317 62.5038,0 112.819,-18.1619 150.985,-54.4858 38.0044,-36.3441 57.0167,-80.5038 57.0167,-132.681 0,-33.1653 -8.6659,-61.9976 -25.9977,-86.659 -17.514,-24.4994 -43.8357,-43.4915 -79.3497,-56.8345 43.8357,-14.3352 77.3452,-37.3362 100.346,-69.3272 22.8188,-31.8289 34.3194,-69.9953 34.3194,-114.175 0,-61.3294 -21.6647,-112.657 -64.8323,-154.326 -43.3295,-41.6692 -100.326,-62.5038 -170.989,-62.5038 -70.6635,0 -127.498,20.8346 -170.828,62.6658 -43.3497,41.8312 -65.0145,94.0088 -65.0145,156.513 0,46.4881 11.8447,85.4846 35.514,116.99 23.487,31.343 57.1585,52.8255 100.832,64.1641zm-17.676 149.001c0,-33.8334 10.9944,-61.4914 32.6591,-82.9942 21.847,-21.5028 50.1731,-32.3351 85.0189,-32.3351 33.8334,0 61.6534,10.6704 83.3181,31.9909 21.6647,21.3408 32.3351,47.5005 32.3351,78.3373 0,32.3351 -10.9944,59.3452 -33.3273,81.3339 -22.3329,22.0089 -50.0111,33.0033 -83.3384,33.0033 -33.4892,0 -61.3294,-10.8324 -83.5004,-32.1732 -22.1709,-21.5028 -33.1653,-47.3182 -33.1653,-77.1629zm-28.3261 -330.661c0,-25.0056 5.99324,-49.343 17.8177,-72.668 11.8447,-23.5073 29.5005,-41.6692 53.0078,-54.5061 23.5073,-12.8369 48.6748,-19.3363 75.6646,-19.3363 42.0134,0 76.677,13.505 104.011,40.6771 27.334,26.9898 41.001,61.3294 41.001,102.999 0,42.3374 -14.0112,77.3249 -42.1754,105.003 -28.1642,27.658 -63.4959,41.487 -105.833,41.487 -41.325,0 -75.5026,-13.667 -102.675,-41.001 -27.1518,-27.496 -40.8188,-61.6534 -40.8188,-102.654z"
     id="path105" /></glyph>
   <glyph
   unicode="7"
   horiz-adv-x="556"
   id="glyph107"><path
     d="M47.3385 622.001l0 84.4925 463.322 0 0 -68.3351c-45.496,-48.4926 -90.668,-113.001 -135.496,-193.322 -44.6658,-80.3418 -79.3294,-163.174 -103.667,-248.011 -17.6558,-59.9931 -28.8323,-125.494 -33.6715,-196.825l-90.3238 0c0.992124,56.3283 12.0067,124.339 33.1653,204.175 21.1586,79.6534 51.4892,156.654 90.9919,230.659 39.6647,74.0043 81.6781,136.508 126.344,187.167l-350.665 0z"
     id="path109" /></glyph>
   <glyph
   unicode="6"
   horiz-adv-x="556"
   id="glyph111"><path
     d="M497.499 540.505l-87.3271 -6.84363c-7.83575,34.5016 -18.8301,59.6692 -33.1653,75.1787 -23.8312,25.1675 -53.1697,37.6602 -88.0156,37.6602 -27.9819,0 -52.5016,-7.83575 -73.6601,-23.5073 -27.658,-20.1664 -49.505,-49.6669 -65.5004,-88.3193 -15.8335,-38.6726 -24.1552,-93.8468 -24.8233,-165.502 21.1586,32.1529 46.9943,56.1664 77.6691,71.8379 30.4926,15.4893 62.6658,23.325 96.155,23.325 58.677,0 108.506,-21.5028 149.669,-64.6703 41.163,-43.1675 61.8356,-98.8277 61.8356,-167.163 0,-45.01 -9.84025,-86.659 -29.1765,-125.332 -19.3363,-38.5106 -46.0021,-68.1731 -79.8356,-88.6635 -33.8334,-20.5106 -72.1618,-30.6748 -115.167,-30.6748 -73.3159,0 -132.985,26.8278 -179.149,80.8277 -46.3464,53.8379 -69.3474,142.684 -69.3474,266.335 0,138.33 25.5118,238.839 76.677,301.666 44.5038,54.668 104.497,82.164 180.162,82.164 56.1664,0 102.33,-15.8335 138.33,-47.5005 35.9999,-31.4847 57.5027,-75.1584 64.6703,-130.819zm-358.825 -308.51c0,-30.3306 6.49942,-59.325 19.316,-87.0032 12.8369,-27.658 30.8368,-48.6546 53.8379,-63.1517 23.1631,-14.4972 47.5005,-21.847 72.83,-21.847 37.1743,0 69.0032,15.0033 95.6691,45.01 26.6659,30.0067 40.0089,70.6635 40.0089,121.991 0,49.505 -13.1608,88.5015 -39.5027,117.01 -26.3419,28.4881 -59.5072,42.6613 -99.4958,42.6613 -39.8469,0 -73.4981,-14.1732 -101.176,-42.6613 -27.658,-28.5084 -41.487,-65.8446 -41.487,-112.009z"
     id="path113" /></glyph>
   <glyph
   unicode="5"
   horiz-adv-x="556"
   id="glyph115"><path
     d="M41.5072 187.491l92.3283 7.83575c6.82338,-44.9898 22.6569,-78.6612 47.5005,-101.318 25.0056,-22.6771 54.992,-34.0157 90.1618,-34.0157 42.3374,0 78.1753,16.0157 107.332,47.8447 29.3385,31.9909 43.9977,74.3283 43.9977,126.992 0,50.1731 -13.991,89.6758 -42.1551,118.67 -28.1642,28.9943 -65.0145,43.4915 -110.672,43.4915 -28.3261,0 -53.8379,-6.49942 -76.6567,-19.316 -22.8391,-12.8369 -40.6771,-29.5005 -53.6759,-50.0111l-82.5083 10.6704 69.3474 367.673 355.99 0 0 -84.0066 -285.671 0 -38.6523 -192.33c42.9853,29.9864 88.1573,44.9898 135.334,44.9898 62.4835,0 115.167,-21.6647 158.153,-64.9942 43.0055,-43.3295 64.5083,-98.9897 64.5083,-167.001 0,-64.8323 -18.9921,-120.837 -56.6725,-167.993 -46.0021,-57.8469 -108.668,-86.8412 -187.997,-86.8412 -65.1562,0 -118.326,18.1619 -159.489,54.668 -41.1833,36.5061 -64.6703,84.8367 -70.5015,144.992z"
     id="path117" /></glyph>
   <glyph
   unicode="4"
   horiz-adv-x="556"
   id="glyph119"><path
     d="M323.169 0l0 171.334 -310.494 0 0 80.6657 326.652 463.828 71.8379 0 0 -463.828 96.6612 0 0 -80.6657 -96.6612 0 0 -171.334 -87.9953 0zm0 251.999l0 322.663 -223.997 -322.663 223.997 0z"
     id="path121" /></glyph>
   <glyph
   unicode="3"
   horiz-adv-x="556"
   id="glyph123"><path
     d="M41.9932 189.01l87.8333 11.6625c10.1642,-49.8289 27.334,-85.6668 51.5094,-107.676 24.3374,-21.9887 53.8379,-33.0033 88.6635,-33.0033 41.325,0 76.3328,14.3352 104.841,43.0055 28.3261,28.6704 42.6613,64.1641 42.6613,106.501 0,40.3329 -13.1608,73.6601 -39.5027,99.84 -26.5039,26.1597 -59.9931,39.3205 -100.67,39.3205 -16.6636,0 -37.3362,-3.32058 -61.9976,-9.82l9.84025 77.1629c5.83126,-0.668165 10.4882,-1.01237 14.1529,-1.01237 37.3362,0 71.0077,9.84025 101.014,29.3385 29.9864,19.4983 44.9898,49.6669 44.9898,90.344 0,32.1529 -10.9944,59.001 -32.8211,79.9976 -21.847,21.1586 -50.0111,31.8289 -84.5127,31.8289 -34.1574,0 -62.6658,-10.8324 -85.3226,-32.1732 -22.8391,-21.5028 -37.4982,-53.8177 -43.9977,-96.8232l-87.8333 15.6715c10.6501,59.001 35.1495,104.659 73.1539,136.994 38.1664,32.3351 85.5049,48.6546 142.177,48.6546 38.9965,0 74.9965,-8.48367 107.818,-25.1473 32.8413,-16.8459 58.0089,-39.685 75.5026,-68.6793 17.3318,-28.9943 26.1799,-59.6692 26.1799,-92.3283 0,-30.8368 -8.34194,-59.001 -25.0056,-84.4925 -16.6636,-25.3498 -41.163,-45.5162 -73.6601,-60.5195 42.3171,-9.65802 75.1584,-29.9864 98.6657,-60.8233 23.325,-30.6748 34.9875,-69.1652 34.9875,-115.329 0,-62.5038 -22.6569,-115.512 -68.3351,-159.003 -45.496,-43.4915 -103.161,-65.1765 -172.832,-65.1765 -62.8278,0 -114.985,18.6681 -156.492,56.1664 -41.5072,37.3362 -65.1765,85.8491 -71.0077,145.518z"
     id="path125" /></glyph>
   <glyph
   unicode="2"
   horiz-adv-x="556"
   id="glyph127"><path
     d="M503.493 84.4925l0 -84.4925 -473.162 0c-0.668165,21.1586 2.67266,41.5072 10.1642,61.0055 12.0067,32.3351 31.343,64.0021 57.8469,95.3249 26.6659,31.1608 64.9942,67.3429 114.985,108.344 77.8311,63.8199 130.515,114.317 157.849,151.653 27.334,37.1743 40.9808,72.506 40.9808,105.671 0,34.8256 -12.4927,64.1641 -37.316,88.1775 -25.0056,23.8312 -57.5027,35.8177 -97.5116,35.8177 -42.3374,0 -76.1708,-12.6546 -101.5,-38.1664 -25.4915,-25.3295 -38.3284,-60.4993 -38.6523,-105.327l-90.344 9.17208c6.17546,67.4847 29.5005,118.832 69.8334,154.164 40.3329,35.3318 94.677,52.9875 162.668,52.9875 68.659,0 123.003,-19.1541 162.992,-57.1585 40.1709,-38.1664 60.1753,-85.3226 60.1753,-141.671 0,-28.6704 -5.83126,-56.8345 -17.676,-84.4925 -11.6625,-27.6782 -31.1608,-56.8345 -58.3328,-87.3271 -27.1518,-30.6748 -72.3238,-72.668 -135.496,-126 -52.6635,-44.3419 -86.497,-74.3485 -101.5,-90.182 -15.0033,-15.6513 -27.334,-31.4847 -37.154,-47.5005l351.151 0z"
     id="path129" /></glyph>
   <glyph
   unicode="1"
   horiz-adv-x="556"
   id="glyph131"><path
     d="M372.492 0l-87.8333 0 0 560.003c-21.1586,-20.1664 -48.8165,-40.3329 -83.1562,-60.4993 -34.5016,-20.1664 -65.3384,-35.3318 -92.6725,-45.334l0 84.8367c49.1607,23.1631 92.1663,51.1652 128.996,83.9863 36.6681,33.0033 62.848,64.8323 78.1753,95.8311l56.4903 0 0 -718.824z"
     id="path133" /></glyph>
   <glyph
   unicode="0"
   horiz-adv-x="556"
   id="glyph135"><path
     d="M41.5072 352.994c0,84.6747 8.6659,152.848 26.1597,204.337 17.3318,51.6714 43.3295,91.4981 77.6691,119.5 34.3396,28.0022 77.5071,41.9932 129.503,41.9932 38.4904,0 72.1618,-7.81551 101.156,-23.325 29.0146,-15.3273 52.8458,-37.6602 71.8379,-66.8367 18.8301,-29.1563 33.6715,-64.6703 44.3419,-106.501 10.8324,-41.8312 16.1574,-98.1595 16.1574,-169.167 0,-83.9863 -8.6659,-151.653 -25.8357,-203.325 -17.3318,-51.6714 -43.1675,-91.4981 -77.4869,-119.662 -34.3396,-28.1642 -77.6691,-42.1754 -130.171,-42.1754 -69.0032,0 -123.165,24.6614 -162.506,74.1663 -47.1562,59.5072 -70.8255,156.675 -70.8255,290.996zm90.3238 0c0,-117.496 13.829,-195.651 41.3452,-234.668 27.496,-38.8346 61.3294,-58.3328 101.662,-58.3328 40.4948,0 74.3283,19.6805 101.824,58.677 27.496,38.9965 41.3452,117.172 41.3452,234.323 0,117.84 -13.8492,196.177 -41.3452,234.85 -27.496,38.8143 -61.6534,58.1506 -102.654,58.1506 -40.5151,0 -72.668,-17.1698 -96.8434,-51.3272 -30.1687,-43.4915 -45.334,-124.157 -45.334,-241.673z"
     id="path137" /></glyph>
   <glyph
   unicode="O"
   horiz-adv-x="777"
   id="glyph139"><path
     d="M48.3306 348.661c0,118.832 31.8289,211.849 95.6691,279.009 63.8401,67.1607 146.166,100.832 247.16,100.832 66.0066,0 125.676,-15.8335 178.663,-47.3385 53.0078,-31.667 93.5026,-75.6646 121.343,-132.155 27.8402,-56.3486 41.6692,-120.513 41.6692,-192.006 0,-72.668 -14.4972,-137.662 -43.8357,-194.841 -29.3385,-57.3205 -70.8255,-100.67 -124.501,-130.171 -53.8379,-29.5005 -111.665,-44.1596 -173.824,-44.1596 -67.5049,0 -127.68,16.1777 -180.668,48.8368 -53.1697,32.4971 -93.3406,77.001 -120.675,133.329 -27.334,56.1664 -41.001,115.836 -41.001,178.663zm97.6736 -1.49831c0,-86.335 23.1631,-154.164 69.4892,-203.831 46.5083,-49.6669 104.679,-74.4903 174.675,-74.4903 71.3317,0 130.009,24.9853 175.991,75.1584 46.0021,50.1731 69.1652,121.343 69.1652,213.509 0,58.1506 -9.98198,108.992 -29.6625,152.483 -19.6602,43.5117 -48.4926,77.1832 -86.335,101.176 -37.9842,23.8312 -80.4835,35.8379 -127.66,35.8379 -67.1607,0 -124.825,-23.0011 -173.176,-69.1652 -48.3306,-46.0021 -72.4858,-123.003 -72.4858,-230.679z"
     id="path141" /></glyph>
   <glyph
   unicode="N"
   horiz-adv-x="722"
   id="glyph143"><path
     d="M76.1708 0l0 715.827 97.1674 0 375.995 -561.987 0 561.987 90.8299 0 0 -715.827 -97.1674 0 -375.995 562.494 0 -562.494 -90.8299 0z"
     id="path145" /></glyph>
   <glyph
   unicode="M"
   horiz-adv-x="832"
   id="glyph147"><path
     d="M74.1663 0l0 715.827 142.663 0 169.329 -506.834c15.6715,-47.1562 27.172,-82.488 34.1777,-105.995 8.15971,25.9977 20.8346,64.3261 38.1664,114.843l171.334 497.985 127.498 0 0 -715.827 -91.3361 0 0 599.162 -208.002 -599.162 -85.5049 0 -206.989 609.326 0 -609.326 -91.3361 0z"
     id="path149" /></glyph>
   <glyph
   unicode="L"
   horiz-adv-x="556"
   id="glyph151"><path
     d="M73.1742 0l0 715.827 94.8187 0 0 -631.335 352.508 0 0 -84.4925 -447.326 0z"
     id="path153" /></glyph>
   <glyph
   unicode="K"
   horiz-adv-x="666"
   id="glyph155"><path
     d="M73.1742 0l0 715.827 94.8187 0 0 -354.998 355.504 354.998 128.328 0 -300.33 -290.004 313.511 -425.824 -125.008 0 -254.834 362.328 -117.172 -114.337 0 -247.99 -94.8187 0z"
     id="path157" /></glyph>
   <glyph
   unicode="J"
   horiz-adv-x="500"
   id="glyph159"><path
     d="M28.8323 203.163l85.5049 11.6625c2.16647,-54.668 12.4927,-92.1663 30.6546,-112.333 18.3442,-20.1664 43.5117,-30.1687 75.6849,-30.1687 23.8312,0 44.3216,5.34532 61.4914,16.3397 17.3318,10.8324 29.1563,25.6737 35.6557,44.3419 6.49942,18.8301 9.84025,48.6546 9.84025,89.6556l0 493.166 94.677 0 0 -487.821c0,-59.8311 -7.16759,-106.339 -21.6647,-139.181 -14.5174,-32.8211 -37.5185,-57.8266 -68.8412,-75.1584 -31.505,-17.1698 -68.3351,-25.8357 -110.672,-25.8357 -62.8278,0 -110.834,18 -144.324,54.1619 -33.3475,36.1821 -49.343,89.8378 -48.0066,161.169z"
     id="path161" /></glyph>
   <glyph
   unicode="I"
   horiz-adv-x="277"
   id="glyph163"><path
     d="M93.3406 0l0 715.827 94.6567 0 0 -715.827 -94.6567 0z"
     id="path165" /></glyph>
   <glyph
   unicode="H"
   horiz-adv-x="722"
   id="glyph167"><path
     d="M79.9976 0l0 715.827 94.8389 0 0 -293.993 372.006 0 0 293.993 94.8187 0 0 -715.827 -94.8187 0 0 337.342 -372.006 0 0 -337.342 -94.8389 0z"
     id="path169" /></glyph>
   <glyph
   unicode="G"
   horiz-adv-x="777"
   id="glyph171"><path
     d="M412.157 280.832l0 83.8446 303.185 0.485938 0 -265.504c-46.5083,-37.154 -94.515,-64.9942 -144,-83.8243 -49.505,-18.6681 -100.346,-28.0022 -152.342,-28.0022 -70.3395,0 -134.342,15.0033 -191.662,45.172 -57.5027,30.0067 -100.832,73.6601 -130.171,130.495 -29.3385,56.9965 -43.9977,120.675 -43.9977,190.994 0,69.6714 14.6591,134.666 43.8357,195.003 28.9943,60.4993 70.9875,105.347 125.656,134.666 54.668,29.1765 117.678,43.8357 189.01,43.8357 51.6714,0 98.5037,-8.32169 140.335,-25.1675 41.8312,-16.6636 74.6523,-39.9887 98.3215,-69.9953 23.8312,-30.0067 41.8312,-69.0032 54.3441,-117.172l-85.5049 -23.487c-10.8324,36.4859 -24.1754,65.1562 -40.0089,85.9908 -15.9955,20.8346 -38.8143,37.4982 -68.497,50.0111 -29.5005,12.4927 -62.4835,18.8301 -98.5037,18.8301 -43.3295,0 -80.8277,-6.68165 -112.333,-19.8425 -31.667,-13.1608 -56.9965,-30.4926 -76.4948,-51.9954 -19.3363,-21.5028 -34.3194,-45.01 -45.172,-70.8255 -18.1619,-44.1799 -27.3138,-92.1865 -27.3138,-144 0,-63.8401 10.9944,-117.172 32.9831,-160.177 22.0089,-43.0055 53.9999,-74.8345 96.0133,-95.6691 41.9932,-20.8346 86.497,-31.3228 133.653,-31.3228 41.1833,0 81.1719,7.99773 120.168,23.8312 39.1788,15.6513 68.6793,32.4971 88.8457,50.4971l0 133.329 -210.35 0z"
     id="path173" /></glyph>
   <glyph
   unicode="F"
   horiz-adv-x="610"
   id="glyph175"><path
     d="M82.0021 0l0 715.827 483.002 0 0 -84.4925 -388.163 0 0 -221.669 335.824 0 0 -84.4925 -335.824 0 0 -325.174 -94.8389 0z"
     id="path177" /></glyph>
   <glyph
   unicode="E"
   horiz-adv-x="666"
   id="glyph179"><path
     d="M79.1674 0l0 715.827 517.504 0 0 -84.4925 -422.847 0 0 -219.178 395.999 0 0 -83.9863 -395.999 0 0 -243.678 439.511 0 0 -84.4925 -534.168 0z"
     id="path181" /></glyph>
   <glyph
   unicode="D"
   horiz-adv-x="722"
   id="glyph183"><path
     d="M77.1629 0l0 715.827 246.512 0c55.6602,0 98.1595,-3.5028 127.498,-10.3262 41.001,-9.33406 75.9886,-26.5039 105.003,-51.1652 37.6602,-32.0112 65.9864,-72.668 84.6545,-122.335 18.8301,-49.6669 28.1642,-106.339 28.1642,-170.159 0,-54.3441 -6.33744,-102.513 -19.1541,-144.506 -12.6749,-41.9932 -28.8323,-76.839 -48.8368,-104.335 -19.8425,-27.496 -41.5072,-49.1607 -65.1765,-64.8323 -23.487,-15.8335 -51.9954,-27.8402 -85.3226,-35.9999 -33.5095,-8.15971 -71.8379,-12.1687 -115.005,-12.1687l-258.337 0zm94.677 84.4925l152.828 0c47.1562,0 84.3305,4.33295 111.158,13.1811 26.8481,8.82788 48.1686,21.1586 64.1843,37.154 22.4949,22.3329 39.9887,52.6635 52.4813,90.506 12.5129,38.0044 18.8504,83.8243 18.8504,138.006 0,74.8345 -12.3509,132.317 -36.8503,172.488 -24.6614,40.3329 -54.4858,67.181 -89.6556,80.848 -25.3295,9.82 -66.3306,14.6591 -122.497,14.6591l-150.499 0 0 -546.842z"
     id="path185" /></glyph>
   <glyph
   unicode="C"
   horiz-adv-x="722"
   id="glyph187"><path
     d="M587.843 251.007l94.8187 -24.0134c-19.8222,-77.6691 -55.6602,-136.994 -107.17,-177.995 -51.6512,-40.8391 -114.661,-61.1675 -189.334,-61.1675 -77.1629,0 -139.829,15.6715 -188.159,46.9943 -48.3306,31.505 -85.1607,77.001 -110.328,136.508 -25.1675,59.6692 -37.8424,123.671 -37.8424,192.006 0,74.4903 14.1732,139.485 42.6613,195.003 28.5084,55.4982 69.0032,97.6533 121.667,126.486 52.5016,28.8323 110.348,43.1675 173.5,43.1675 71.6759,0 131.851,-18.1619 180.668,-54.668 48.8368,-36.4859 82.8322,-87.6713 102.007,-153.82l-93.1584 -22.0089c-16.6636,52.1574 -40.6771,89.9998 -72.344,113.831 -31.505,23.8312 -71.1697,35.676 -119.156,35.676 -55.0122,0 -100.832,-13.1811 -137.844,-39.5027 -36.992,-26.5039 -62.9897,-61.8356 -77.8311,-106.339 -15.0033,-44.3216 -22.4949,-90.1618 -22.4949,-137.338 0,-60.9852 8.82788,-113.993 26.5039,-159.489 17.8177,-45.334 45.334,-79.3294 82.8322,-101.845 37.4982,-22.4949 77.9931,-33.6512 121.667,-33.6512 52.9875,0 97.8356,15.3273 134.666,45.8199 36.8301,30.6748 61.6534,76.1708 74.6725,136.346z"
     id="path189" /></glyph>
   <glyph
   unicode="B"
   horiz-adv-x="666"
   id="glyph191"><path
     d="M73.1742 0l0 715.827 268.663 0c54.668,0 98.5037,-7.32957 131.487,-21.6647 33.1855,-14.4972 59.001,-36.8301 77.6691,-66.9987 18.6681,-30.0067 28.1642,-61.4914 28.1642,-94.4947 0,-30.4926 -8.32169,-59.3452 -24.9853,-86.335 -16.5017,-27.0101 -41.6692,-48.8368 -75.1787,-65.5004 43.3497,-12.6749 76.515,-34.3396 99.84,-64.8323 23.325,-30.6748 35.0078,-66.8367 35.0078,-108.506 0,-33.4892 -7.16759,-64.6703 -21.3408,-93.5026 -14.1732,-28.8323 -31.667,-50.983 -52.5016,-66.6545 -20.8346,-15.6715 -46.9943,-27.334 -78.3373,-35.3318 -31.3228,-7.99773 -69.8334,-12.0067 -115.491,-12.0067l-272.996 0zm94.8187 414.991l154.832 0c41.8514,0 71.9998,2.83464 90.344,8.34194 23.9932,7.16759 42.1551,18.9921 54.3238,35.676 12.1687,16.6636 18.3442,37.4982 18.3442,62.4835 0,23.6692 -5.66928,44.6658 -17.0078,62.6658 -11.5005,18.1822 -27.82,30.5129 -48.8368,37.1743 -21.1586,6.6614 -57.4824,10.0022 -108.992,10.0022l-143.008 0 0 -216.344zm0 -330.499l178.177 0c30.6546,0 52.1574,1.17435 64.488,3.34082 21.847,4.00899 40.0089,10.5084 54.668,19.6602 14.6794,9.0101 26.6659,22.3329 36.1821,39.6647 9.33406,17.514 14.1529,37.5185 14.1529,60.3373 0,26.6659 -6.82338,49.8289 -20.4904,69.6714 -13.667,19.6602 -32.6793,33.5095 -56.9965,41.5072 -24.1754,7.83575 -59.1832,11.8245 -104.679,11.8245l-165.502 0 0 -246.006z"
     id="path193" /></glyph>
   <glyph
   unicode="A"
   horiz-adv-x="666"
   id="glyph195"><path
     d="M-1.49831 0l275.001 715.827 102.007 0 293 -715.827 -108 0 -83.5004 216.83 -299.338 0 -78.4993 -216.83 -100.67 0zm206.503 293.993l242.827 0 -74.8345 198.182c-22.6569,60.1551 -39.6647,109.66 -50.6591,148.495 -9.17208,-46.0021 -22.0089,-91.4981 -38.6726,-136.832l-78.6612 -209.844z"
     id="path197" /></glyph>
   <glyph
   unicode="@"
   horiz-adv-x="1015"
   id="glyph199"><path
     d="M566.827 79.6736c-21.1586,-24.4994 -44.8278,-44.1799 -70.9875,-58.839 -26.1799,-14.8414 -52.5016,-22.3329 -78.8435,-22.3329 -28.9943,0 -57.1585,8.50392 -84.4925,25.4915 -27.334,16.8459 -49.505,42.8435 -66.6748,78.0133 -16.9876,35.1698 -25.6535,73.8221 -25.6535,115.836 0,51.6512 13.3228,103.485 39.8267,155.5 26.5039,51.8334 59.5072,90.8299 98.8277,116.828 39.5027,26.1597 77.6691,39.1585 114.843,39.1585 28.3261,0 55.3362,-7.49155 80.9897,-22.3329 25.8357,-14.6591 47.8447,-37.3362 66.5128,-67.5049l16.4814 75.6849 87.5094 0 -70.3395 -327.684c-9.82,-45.496 -14.6591,-70.8255 -14.6591,-75.6646 0,-8.82788 3.34082,-16.3194 10.0022,-22.6569 6.6614,-6.33744 14.6591,-9.49604 24.1552,-9.49604 17.352,0 39.8469,9.82 67.8491,29.6625 37.154,26.1597 66.4925,61.0055 88.1573,104.821 21.6647,43.6737 32.4971,88.8457 32.4971,135.516 0,54.3238 -13.991,105.165 -41.8312,152.321 -27.8402,47.1765 -69.3272,84.8367 -124.501,113.163 -55.154,28.3464 -115.997,42.4993 -182.834,42.4993 -76.1708,0 -145.66,-17.8177 -208.67,-53.4937 -62.9897,-35.4937 -111.827,-86.659 -146.49,-153.172 -34.6636,-66.6545 -51.9954,-137.986 -51.9954,-214.157 0,-79.8356 17.3318,-148.495 51.9954,-205.997 34.6636,-57.6647 84.8367,-100.346 150.337,-127.842 65.6624,-27.496 138.33,-41.163 218.004,-41.163 85.3226,0 156.816,14.3352 214.319,43.0055 57.6647,28.6704 100.832,63.4959 129.503,104.497l88.3395 0c-16.6636,-34.1574 -45.01,-69.0032 -85.5049,-104.497 -40.3329,-35.4937 -88.3395,-63.6781 -144,-84.3305 -55.6602,-20.6726 -122.659,-30.9988 -201.158,-30.9988 -72.344,0 -138.837,9.33406 -200.004,27.82 -61.0055,18.6681 -113.001,46.5083 -156.006,83.8446 -43.0055,37.154 -75.3204,80.1595 -97.1674,128.652 -27.334,61.5117 -41.001,127.842 -41.001,199.174 0,79.5116 16.3397,155.176 48.8368,226.994 39.6647,88.3395 96.1753,155.844 169.167,202.677 73.1742,46.8323 161.838,70.3395 266.011,70.3395 80.6657,0 153.152,-16.5017 217.498,-49.505 64.1641,-33.1653 114.985,-82.3463 151.997,-147.847 31.667,-56.1664 47.3182,-117.496 47.3182,-183.482 0,-94.515 -33.1653,-178.177 -99.4958,-251.513 -59.325,-65.6624 -123.995,-98.6657 -194.335,-98.6657 -22.4949,0 -40.6568,3.5028 -54.4858,10.3464 -13.8492,6.82338 -24.0134,16.4814 -30.5129,29.3183 -4.15072,7.99773 -7.32957,22.0089 -9.33406,42.0134zm-236.328 132.155c0,-44.5038 10.6704,-79.1674 31.8289,-103.991 21.1788,-24.6614 45.334,-37.0123 72.668,-37.0123 18.3442,0 37.4982,5.5073 57.6647,16.3397 20.1664,10.8324 39.5027,27.172 57.8469,48.4926 18.4859,21.5028 33.4892,48.8368 45.1518,81.8401 11.8447,33.0033 17.676,66.1686 17.676,99.3339 0,44.3419 -10.9944,78.6612 -33.0033,103.161 -21.9887,24.3374 -48.8368,36.5061 -80.3215,36.5061 -20.8346,0 -40.5151,-5.16309 -58.839,-15.8335 -18.3442,-10.4882 -36.1619,-27.496 -53.5139,-51.0033 -17.1496,-23.487 -30.9988,-51.9954 -41.487,-85.5049 -10.3464,-33.4892 -15.6715,-64.3261 -15.6715,-92.3283z"
     id="path201" /></glyph>
   <glyph
   unicode="_"
   horiz-adv-x="556"
   id="glyph203"><path
     d="M-15.1653 -198.668l0 63.3339 582.498 0 0 -63.3339 -582.498 0z"
     id="path205" /></glyph>
   <glyph
   unicode="^"
   horiz-adv-x="469"
   id="glyph207"><path
     d="M116.666 336.836l-90.3238 0 172.326 391.16 70.8255 0 173.338 -391.16 -88.3395 0 -120.654 291.664 -117.172 -291.664z"
     id="path209" /></glyph>
   <glyph
   unicode="]"
   horiz-adv-x="277"
   id="glyph211"><path
     d="M212.841 -198.668l-193.849 0 0 72.668 106.016 0 0 768.997 -106.016 0 0 72.83 193.849 0 0 -914.495z"
     id="path213" /></glyph>
   <glyph
   unicode="\"
   horiz-adv-x="277"
   id="glyph215"><path
     d="M207.496 -12.1687l-207.496 740.165 70.8255 0 207.01 -740.165 -70.3395 0z"
     id="path217" /></glyph>
   <glyph
   unicode="["
   horiz-adv-x="277"
   id="glyph219"><path
     d="M67.8289 -198.668l0 914.495 193.829 0 0 -72.83 -105.833 0 0 -768.997 105.833 0 0 -72.668 -193.829 0z"
     id="path221" /></glyph>
   <glyph
   unicode="Z"
   horiz-adv-x="610"
   id="glyph223"><path
     d="M20.0045 0l0 87.8333 366.661 458.503c26.1597,32.6591 50.8413,61.0055 74.3283,84.9987l-399.502 0 0 84.4925 512.685 0 0 -84.4925 -401.851 -496.507 -43.4915 -50.3351 457.167 0 0 -84.4925 -565.996 0z"
     id="path225" /></glyph>
   <glyph
   unicode="Y"
   horiz-adv-x="666"
   id="glyph227"><path
     d="M278.827 0l0 303.165 -275.831 412.663 115.167 0 141.165 -215.817c25.9977,-40.3531 50.1731,-80.686 72.668,-121.181 21.5028,37.4982 47.5005,79.6736 78.1753,126.506l138.654 210.492 110.348 0 -285.671 -412.663 0 -303.165 -94.677 0z"
     id="path229" /></glyph>
   <glyph
   unicode="X"
   horiz-adv-x="666"
   id="glyph231"><path
     d="M4.33295 0l277.005 372.998 -244.164 342.829 112.657 0 130.009 -183.664c26.9898,-38.0044 46.1641,-67.3227 57.5027,-87.8333 15.9955,25.9977 34.8256,53.1697 56.6523,81.4959l144.182 190.002 102.999 0 -251.513 -337.322 271.012 -378.505 -117.172 0 -180.162 255.34c-10.1642,14.6591 -20.5106,30.6546 -31.343,47.8244 -15.9955,-25.9977 -27.334,-43.8357 -34.1574,-53.6557l-179.676 -249.509 -113.831 0z"
     id="path233" /></glyph>
   <glyph
   unicode="W"
   horiz-adv-x="943"
   id="glyph235"><path
     d="M202.171 0l-190.002 715.827 97.1674 0 108.992 -469.153c11.6625,-49.181 21.6647,-98.0178 30.1687,-146.51 18.3442,76.4948 28.9943,120.513 32.3351,132.337l136.164 483.326 114.337 0 102.492 -362.328c25.6737,-89.8378 44.1799,-174.33 55.6804,-253.336 8.98986,45.172 20.9966,97.1674 35.6557,155.662l112.171 460.001 95.3249 0 -196.319 -715.827 -91.3361 0 -150.843 545.324c-12.6546,45.6782 -20.1664,73.6804 -22.4949,84.0066 -7.49155,-32.8211 -14.4972,-60.8233 -20.9966,-84.0066l-151.835 -545.324 -96.6612 0z"
     id="path237" /></glyph>
   <glyph
   unicode="V"
   horiz-adv-x="666"
   id="glyph239"><path
     d="M281.662 0l-277.329 715.827 102.675 0 185.993 -519.994c15.0033,-41.6692 27.496,-80.8277 37.4982,-117.172 11.1766,38.9965 23.9932,78.0133 38.6726,117.172l193.322 519.994 96.6814 0 -280.346 -715.827 -97.1674 0z"
     id="path241" /></glyph>
   <glyph
   unicode="U"
   horiz-adv-x="722"
   id="glyph243"><path
     d="M546.842 715.827l94.8187 0 0 -413.655c0,-71.8379 -8.15971,-128.996 -24.4994,-171.334 -16.3194,-42.3374 -45.6579,-76.677 -88.1573,-103.181 -42.4993,-26.6659 -98.1798,-39.8267 -167.163,-39.8267 -66.9987,0 -122.011,11.5005 -164.51,34.6636 -42.6613,23.0011 -73.1742,56.5106 -91.3361,100.346 -18.3239,43.8357 -27.334,103.485 -27.334,179.331l0 413.655 94.677 0 0 -413.169c0,-62.1596 5.83126,-108 17.3318,-137.318 11.5005,-29.5005 31.505,-52.1776 59.4869,-68.1731 28.1844,-15.9955 62.686,-23.9932 103.343,-23.9932 69.6714,0 119.338,15.8335 149.001,47.5005 29.5005,31.4847 44.3419,92.1663 44.3419,181.984l0 413.169z"
     id="path245" /></glyph>
   <glyph
   unicode="T"
   horiz-adv-x="610"
   id="glyph247"><path
     d="M259.329 0l0 631.335 -235.822 0 0 84.4925 567.333 0 0 -84.4925 -236.834 0 0 -631.335 -94.677 0z"
     id="path249" /></glyph>
   <glyph
   unicode="S"
   horiz-adv-x="666"
   id="glyph251"><path
     d="M45.01 229.99l89.3316 7.83575c4.15072,-35.8177 13.991,-65.1562 29.5005,-88.1573 15.4893,-23.0011 39.4825,-41.5072 71.9998,-55.6602 32.4971,-14.1732 69.1652,-21.1788 109.822,-21.1788 36.1619,0 68.0111,5.34532 95.6691,15.9955 27.658,10.8324 48.3306,25.5118 61.8356,44.1799 13.505,18.8301 20.3284,39.1585 20.3284,61.3294 0,22.4949 -6.49942,41.9932 -19.6602,58.839 -12.9988,16.8256 -34.5016,30.8166 -64.3463,42.1551 -19.316,7.51179 -61.6534,19.1743 -127.498,35.0078 -65.6624,15.8335 -111.827,30.6546 -138.168,44.6658 -34.1574,17.838 -59.6489,40.1709 -76.4948,66.6545 -16.6636,26.5039 -25.0056,56.1664 -25.0056,89.1697 0,35.9999 10.1845,69.8334 30.6748,101.176 20.5106,31.505 50.4971,55.3362 89.8378,71.6556 39.5027,16.1777 83.1562,24.3374 131.325,24.3374 53.1697,0 99.84,-8.50392 140.497,-25.6535 40.5151,-17.0078 71.6759,-42.1754 93.5026,-75.3407 21.6647,-33.1653 33.5095,-70.8255 35.1698,-112.839l-90.8299 -6.82338c-5.00111,45.1518 -21.5028,79.4914 -49.6669,102.492 -28.1642,23.1631 -69.6714,34.6636 -124.663,34.6636 -57.3407,0 -99.0099,-10.4882 -125.332,-31.505 -26.1799,-20.9966 -39.3407,-46.3261 -39.3407,-75.8266 0,-25.8357 9.33406,-46.9943 27.8402,-63.4959 18.3239,-16.6636 65.8244,-33.6715 142.825,-51.0033 77.001,-17.4938 129.826,-32.6591 158.497,-45.6579 41.6692,-19.3363 72.506,-43.6737 92.3485,-73.0122 19.8222,-29.5005 29.6625,-63.4959 29.6625,-101.824 0,-38.1664 -10.8324,-74.0043 -32.6793,-107.676 -21.8267,-33.6715 -53.1495,-59.8311 -93.9885,-78.6612 -40.8391,-18.6681 -86.8412,-28.0022 -137.844,-28.0022 -64.8323,0 -119.156,9.33406 -162.83,28.3261 -43.8357,18.8504 -78.1551,47.1765 -103.161,85.1809 -24.8436,37.8222 -38.0044,80.8277 -39.1585,128.652z"
     id="path253" /></glyph>
   <glyph
   unicode="R"
   horiz-adv-x="722"
   id="glyph255"><path
     d="M78.6612 0l0 715.827 317.338 0c63.8401,0 112.333,-6.49942 145.498,-19.3363 33.1653,-12.8166 59.6692,-35.4937 79.6736,-67.9908 19.8222,-32.6591 29.6625,-68.659 29.6625,-108 0,-50.8413 -16.3397,-93.5026 -49.343,-128.328 -32.8211,-34.8458 -83.6624,-56.9965 -152.321,-66.5128 25.1675,-11.9865 44.1596,-23.8312 57.1585,-35.6557 27.6782,-25.3295 53.8379,-57.1787 78.6815,-95.1629l124.481 -194.841 -119.156 0 -94.677 149.001c-27.658,42.8233 -50.4971,75.8266 -68.497,98.5037 -17.8177,22.8188 -33.8334,38.8346 -47.9864,47.8244 -14.1732,9.17208 -28.5084,15.5095 -43.1675,19.1743 -10.8324,2.16647 -28.3464,3.32058 -52.8458,3.32058l-109.822 0 0 -317.824 -94.677 0zm94.677 399.826l203.669 0c43.1675,0 77.1629,4.51518 101.5,13.505 24.4994,9.0101 42.9853,23.3453 55.6602,43.0055 12.6749,19.6602 18.9921,41.001 18.9921,64.1641 0,33.8334 -12.1687,61.6737 -36.8301,83.5004 -24.4994,21.8267 -63.3339,32.6591 -116.504,32.6591l-226.488 0 0 -236.834z"
     id="path257" /></glyph>
   <glyph
   unicode="Q"
   horiz-adv-x="777"
   id="glyph259"><path
     d="M619.672 76.6567c43.8357,-30.3306 84.4925,-52.3193 121.485,-66.3306l-27.82 -65.9864c-51.3272,18.4859 -102.675,47.8244 -153.84,87.8333 -52.9875,-29.5005 -111.503,-44.3419 -175.667,-44.3419 -64.8323,0 -123.489,15.6715 -176.335,46.8323 -52.6635,31.343 -93.3204,75.1787 -121.829,131.831 -28.5084,56.6725 -42.6613,120.513 -42.6613,191.338 0,70.6635 14.3352,135.01 42.9853,192.998 28.6704,57.8266 69.3474,102.007 122.335,132.337 52.8458,30.1687 112.009,45.334 177.347,45.334 66.1686,0 125.656,-15.6715 178.825,-47.1765 53.0078,-31.3228 93.5026,-75.3204 121.343,-131.831 27.82,-56.4903 41.649,-120.168 41.649,-191.156 0,-58.839 -8.82788,-111.847 -26.8278,-158.841 -17.838,-46.9943 -44.8278,-87.9953 -80.9897,-122.841zm-208.508 121.181c54.668,-15.3475 99.6781,-38.1664 135.172,-68.497 55.6602,50.821 83.5004,127.154 83.5004,228.998 0,57.9886 -9.84025,108.668 -29.5005,151.997 -19.6602,43.1675 -48.5128,76.839 -86.335,100.832 -38.0044,23.8312 -80.5038,35.8379 -127.842,35.8379 -70.5015,0 -129.158,-24.1754 -175.667,-72.506 -46.6501,-48.3306 -69.8334,-120.492 -69.8334,-216.668 0,-92.9964 23.0011,-164.49 69.0032,-214.339 46.1641,-49.6669 105.003,-74.6523 176.497,-74.6523 34.0157,0 65.8446,6.3172 95.8311,18.9921 -29.6625,19.3363 -60.9852,33.0033 -93.8266,41.001l23.0011 69.0032z"
     id="path261" /></glyph>
   <glyph
   unicode="P"
   horiz-adv-x="666"
   id="glyph263"><path
     d="M77.1629 0l0 715.827 269.999 0c47.5005,0 83.8446,-2.32845 108.83,-6.82338 35.1698,-5.83126 64.6703,-17.0078 88.5015,-33.5095 23.6692,-16.3194 42.8435,-39.5027 57.3407,-69.0032 14.4972,-29.6625 21.6647,-62.1596 21.6647,-97.6533 0,-60.8435 -19.3363,-112.495 -58.0089,-154.67 -38.8143,-41.9932 -108.83,-63.172 -209.986,-63.172l-183.664 0 0 -290.996 -94.677 0zm94.677 375.509l185.163 0c61.1675,0 104.659,11.3183 130.333,34.1574 25.6737,22.8391 38.4904,54.83 38.4904,96.1753 0,29.9864 -7.49155,55.6602 -22.6569,77.001 -15.1653,21.3205 -35.0078,35.3318 -59.8311,42.1551 -15.9955,4.17097 -45.334,6.33744 -88.3395,6.33744l-183.158 0 0 -255.826z"
     id="path265" /></glyph>
   <glyph
   unicode="o"
   horiz-adv-x="556"
   id="glyph267"><path
     d="M33.1653 259.329c0,96.0133 26.6659,167.163 80.1595,213.347 44.5038,38.3284 98.8479,57.6647 163.012,57.6647 71.3317,0 129.665,-23.3453 174.837,-70.1776 45.334,-46.6703 67.8289,-111.158 67.8289,-193.505 0,-66.8165 -10.0022,-119.318 -30.0067,-157.484 -20.0045,-38.3486 -49.1607,-68.0111 -87.3271,-89.1697 -38.3284,-21.1788 -79.9976,-31.667 -125.332,-31.667 -72.506,0 -131.163,23.1631 -176.011,69.8334 -44.8278,46.4881 -67.1607,113.487 -67.1607,201.158zm90.344 0c0,-66.4925 14.4972,-116.159 43.4915,-149.163 28.9943,-33.1653 65.5004,-49.6669 109.336,-49.6669 43.6534,0 79.9976,16.6636 108.992,49.8289 28.8323,33.1653 43.3295,83.8446 43.3295,151.835 0,64.1641 -14.4972,112.839 -43.6534,145.842 -29.1765,33.0033 -65.3384,49.4847 -108.668,49.4847 -43.8357,0 -80.3418,-16.4814 -109.336,-49.3227 -28.9943,-32.8413 -43.4915,-82.5083 -43.4915,-148.839z"
     id="path269" /></glyph>
   <glyph
   unicode="n"
   horiz-adv-x="556"
   id="glyph271"><path
     d="M66.0066 0l0 518.496 78.9852 0 0 -73.6601c38.1664,56.9965 93.1786,85.5049 165.017,85.5049 31.3228,0 59.9931,-5.66928 86.1528,-16.8459 26.3419,-11.3183 45.8402,-25.9977 58.839,-44.3216 13.1608,-18.1822 22.1709,-39.8469 27.496,-64.8323 3.17885,-16.3397 4.83913,-44.848 4.83913,-85.5049l0 -318.836 -87.9953 0 0 315.495c0,35.676 -3.34082,62.5038 -10.1642,80.3418 -6.84363,17.6558 -19.0123,31.8289 -36.3441,42.3374 -17.4938,10.6501 -37.8222,15.9955 -61.3294,15.9955 -37.4982,0 -69.6714,-12.0067 -97.0054,-35.676 -27.172,-23.8312 -40.6568,-68.821 -40.6568,-135.334l0 -283.16 -87.8333 0z"
     id="path273" /></glyph>
   <glyph
   unicode="m"
   horiz-adv-x="832"
   id="glyph275"><path
     d="M66.0066 0l0 518.496 78.4993 0 0 -72.668c16.3194,25.3295 37.9842,45.8402 64.9942,61.1675 26.9898,15.5095 57.8266,23.3453 92.3283,23.3453 38.3284,0 69.8334,-7.99773 94.3327,-24.0134 24.6816,-15.9955 42.0134,-38.1664 52.0156,-66.8367 41.163,60.5195 94.4947,90.8502 160.157,90.8502 51.5094,0 90.9919,-14.3352 118.67,-42.8435 27.658,-28.4881 41.487,-72.3238 41.487,-131.507l0 -355.99 -87.3271 0 0 326.672c0,35.1698 -2.83464,60.4993 -8.50392,75.9886 -5.83126,15.3475 -16.1574,27.8402 -30.9988,37.3362 -15.0033,9.33406 -32.6591,14.1732 -52.8255,14.1732 -36.5061,0 -66.6748,-12.1687 -90.8299,-36.5061 -24.0134,-24.1552 -36.1821,-62.9897 -36.1821,-116.321l0 -301.342 -87.8333 0 0 336.836c0,39.1585 -7.14734,68.497 -21.4825,87.9953 -14.3352,19.4983 -37.6805,29.3385 -70.3395,29.3385 -24.6614,0 -47.5005,-6.49942 -68.497,-19.6602 -20.9966,-13.0191 -36.3441,-32.0112 -45.6782,-57.0167 -9.49604,-25.1675 -14.1529,-61.3294 -14.1529,-108.486l0 -269.007 -87.8333 0z"
     id="path277" /></glyph>
   <glyph
   unicode="l"
   horiz-adv-x="222"
   id="glyph279"><path
     d="M64.0021 0l0 715.827 87.8333 0 0 -715.827 -87.8333 0z"
     id="path281" /></glyph>
   <glyph
   unicode="k"
   horiz-adv-x="500"
   id="glyph283"><path
     d="M66.3306 0l0 715.827 87.9953 0 0 -408.168 208.002 210.836 113.669 0 -198.162 -192.33 218.328 -326.166 -108.506 0 -171.334 265.16 -61.9976 -59.6692 0 -205.491 -87.9953 0z"
     id="path285" /></glyph>
   <glyph
   unicode="j"
   horiz-adv-x="222"
   id="glyph287"><path
     d="M65.5004 613.841l0 101.986 87.8333 0 0 -101.986 -87.8333 0zm-111.341 -814.999l16.5017 74.6523c17.676,-4.49493 31.505,-6.82338 41.5072,-6.82338 18,0 31.3228,5.99324 39.9887,17.838 8.84812,11.8245 13.3431,41.649 13.3431,89.1494l0 544.838 87.8333 0 0 -546.822c0,-63.8401 -8.34194,-108.182 -24.8436,-133.35 -21.1586,-32.4971 -56.3283,-48.8165 -105.489,-48.8165 -23.8312,0 -46.8323,3.1586 -68.8412,9.33406z"
     id="path289" /></glyph>
   <glyph
   unicode="i"
   horiz-adv-x="222"
   id="glyph291"><path
     d="M66.3306 614.671l0 101.156 87.9953 0 0 -101.156 -87.9953 0zm0 -614.671l0 518.496 87.9953 0 0 -518.496 -87.9953 0z"
     id="path293" /></glyph>
   <glyph
   unicode="h"
   horiz-adv-x="556"
   id="glyph295"><path
     d="M66.0066 0l0 715.827 87.8333 0 0 -256.818c41.001,47.5005 92.8344,71.3317 155.318,71.3317 38.3486,0 71.6759,-7.67377 100.002,-22.8391 28.3464,-15.0033 48.6748,-35.9999 60.8435,-62.6658 12.1687,-26.6659 18.3239,-65.5004 18.3239,-116.159l0 -328.676 -87.9953 0 0 328.676c0,43.8154 -9.49604,75.8266 -28.5084,95.8311 -18.9921,19.9842 -45.9819,30.1687 -80.8277,30.1687 -25.9977,0 -50.4971,-6.84363 -73.4981,-20.3487 -23.0011,-13.4848 -39.3407,-31.8289 -48.9988,-54.992 -9.84025,-23.0011 -14.6591,-55.0122 -14.6591,-95.6691l0 -283.666 -87.8333 0z"
     id="path297" /></glyph>
   <glyph
   unicode="g"
   horiz-adv-x="556"
   id="glyph299"><path
     d="M49.8289 -43.0055l85.5049 -12.6546c3.5028,-26.3419 13.505,-45.5162 29.6625,-57.6647 21.847,-16.1777 51.6714,-24.3374 89.3316,-24.3374 40.8391,0 72.1821,8.15971 94.3327,24.3374 22.1709,16.3194 37.0123,39.1585 44.848,68.3148 4.65691,18 6.6614,55.5184 6.3172,112.839 -38.3284,-45.172 -86.1528,-67.8289 -143.493,-67.8289 -71.3317,0 -126.506,25.6737 -165.502,77.1629 -38.9965,51.3272 -58.6568,113.163 -58.6568,185.001 0,49.505 8.98986,95.1629 26.8278,136.994 18,41.8514 43.9977,74.1663 77.9931,97.0054 34.0157,22.6771 74.0043,34.1777 119.844,34.1777 61.1675,0 111.665,-24.8436 151.329,-74.3485l0 62.5038 81.1719 0 0 -448.156c0,-80.6657 -8.34194,-138.006 -24.6816,-171.678 -16.4814,-33.6715 -42.4993,-60.3373 -78.1551,-79.8356 -35.676,-19.4983 -79.5116,-29.3183 -131.669,-29.3183 -61.8356,0 -111.827,13.991 -149.831,41.8312 -38.1664,27.82 -56.5106,69.6511 -55.1742,125.656zm72.668 311.507c0,-68.0111 13.505,-117.658 40.6771,-148.839 26.9898,-31.3228 60.8233,-46.8323 101.5,-46.8323 40.3329,0 74.1663,15.5095 101.5,46.5083 27.334,31.1608 41.001,79.8356 41.001,146.328 0,63.4959 -14.0112,111.341 -42.1754,143.493 -28.1642,32.1732 -62.1596,48.3306 -101.824,48.3306 -39.0168,0 -72.1821,-15.8335 -99.6781,-47.6624 -27.334,-31.667 -41.001,-78.8232 -41.001,-141.327z"
     id="path301" /></glyph>
   <glyph
   unicode="f"
   horiz-adv-x="277"
   id="glyph303"><path
     d="M86.8412 0l0 450.161 -77.5071 0 0 68.3351 77.5071 0 0 55.1742c0,34.8256 3.1586,60.8233 9.33406,77.6691 8.48367,22.8188 23.325,41.325 44.6658,55.4982 21.3205,14.1529 51.1652,21.1586 89.6556,21.1586 24.6614,0 51.9954,-2.83464 82.0021,-8.82788l-13.1608 -76.677c-18.1619,3.34082 -35.514,5.00111 -51.8334,5.00111 -26.6659,0 -45.496,-5.64903 -56.5106,-17.1496 -11.1563,-11.3386 -16.6636,-32.6793 -16.6636,-64.0021l0 -47.8447 100.994 0 0 -68.3351 -100.994 0 0 -450.161 -87.4891 0z"
     id="path305" /></glyph>
   <glyph
   unicode="e"
   horiz-adv-x="556"
   id="glyph307"><path
     d="M420.843 167.001l90.8299 -11.1766c-14.3352,-53.1495 -40.8391,-94.3327 -79.5116,-123.651 -38.8346,-29.1765 -88.3193,-43.8357 -148.495,-43.8357 -75.8266,0 -136.002,23.325 -180.324,69.9953 -44.5038,46.6703 -66.6748,112.171 -66.6748,196.501 0,87.3271 22.4949,154.994 67.3227,203.163 45.01,48.1686 103.181,72.344 174.837,72.344 69.3474,0 126,-23.6692 169.835,-70.8457 43.9977,-47.1562 66.0066,-113.669 66.0066,-199.154 0,-5.34532 -0.161979,-13.1811 -0.506186,-23.5073l-386.665 0c3.1586,-56.9965 19.3363,-100.67 48.3306,-130.839 29.0146,-30.3306 65.0145,-45.496 108.344,-45.496 32.1529,0 59.6692,8.50392 82.488,25.4915 22.8391,16.8459 40.8391,43.8357 54.1821,81.0099zm-288.506 142.157l289.498 0c-3.82676,43.5117 -15.0033,76.3328 -33.1653,98.0178 -28.0022,33.8334 -64.3463,50.821 -108.83,50.821 -40.3329,0 -74.3485,-13.505 -101.845,-40.4948 -27.496,-27.0101 -42.6613,-63.172 -45.6579,-108.344z"
     id="path309" /></glyph>
   <glyph
   unicode="d"
   horiz-adv-x="556"
   id="glyph311"><path
     d="M402.337 0l0 65.5004c-32.8413,-51.5094 -81.1719,-77.1629 -145.012,-77.1629 -41.325,0 -79.3294,11.3386 -113.993,34.1574 -34.6636,22.6771 -61.4914,54.5061 -80.6657,95.5071 -18.9921,40.8391 -28.5084,87.6713 -28.5084,140.841 0,51.6512 8.6659,98.6657 25.8357,140.821 17.3318,42.1754 43.1675,74.5105 77.6691,96.8434 34.5016,22.4949 73.1742,33.8334 115.836,33.8334 31.1608,0 59.001,-6.68165 83.3384,-19.8425 24.4994,-13.1608 44.3216,-30.3306 59.6692,-51.4892l0 256.818 87.3271 0 0 -715.827 -81.4959 0zm-277.835 258.843c0,-66.5128 13.991,-116.18 41.9932,-149.001 28.0022,-32.8413 61.0055,-49.343 99.1719,-49.343 38.3284,0 71.0077,15.8335 97.8356,47.1765 26.8278,31.3228 40.3329,79.3294 40.3329,143.817 0,71.0077 -13.667,123.003 -41.001,156.168 -27.334,33.3475 -61.0055,49.8289 -101.176,49.8289 -38.9965,0 -71.6556,-15.9955 -97.8153,-47.8244 -26.1799,-31.8289 -39.3407,-82.164 -39.3407,-150.823z"
     id="path313" /></glyph>
   <glyph
   unicode="c"
   horiz-adv-x="500"
   id="glyph315"><path
     d="M404.341 190.002l86.335 -11.3386c-9.33406,-59.4869 -33.5095,-106.157 -72.506,-139.829 -38.8346,-33.6715 -86.6792,-50.4971 -143.332,-50.4971 -70.8457,0 -128.004,23.1631 -171.01,69.4892 -43.1675,46.3464 -64.8323,112.839 -64.8323,199.498 0,56.0044 9.33406,105.003 27.8402,147.017 18.6681,41.9932 46.8323,73.4981 84.8367,94.4947 37.8222,20.9966 79.1674,31.505 123.651,31.505 56.3486,0 102.513,-14.3352 138.168,-42.8435 35.8379,-28.4881 58.839,-68.821 69.0032,-121.323l-85.5049 -13.1811c-8.15971,34.8458 -22.4949,61.0055 -43.1675,78.6815 -20.6524,17.4938 -45.6579,26.3217 -74.9965,26.3217 -44.3216,0 -80.3215,-15.8335 -108,-47.6624 -27.658,-31.667 -41.487,-81.8401 -41.487,-150.499 0,-69.6714 13.3228,-120.33 40.1506,-151.997 26.6659,-31.505 61.5117,-47.3385 104.517,-47.3385 34.5016,0 63.1517,10.6704 86.335,31.8289 23.1631,21.1788 37.8222,53.6759 43.9977,97.6736z"
     id="path317" /></glyph>
   <glyph
   unicode="b"
   horiz-adv-x="556"
   id="glyph319"><path
     d="M146.996 0l-81.4959 0 0 715.827 87.8333 0 0 -255.32c37.1743,46.4881 84.4925,69.8334 141.995,69.8334 32.0112,0 62.1798,-6.49942 90.668,-19.3363 28.5084,-12.8369 51.8334,-30.9988 70.3395,-54.1619 18.3239,-23.3453 32.8211,-51.3475 43.1675,-84.3508 10.4882,-32.8211 15.6715,-67.9908 15.6715,-105.327 0,-89.0077 -22.0089,-157.667 -66.0066,-206.159 -43.8357,-48.5128 -96.6612,-72.668 -158.173,-72.668 -61.1675,0 -109.154,25.4915 -144,76.6567l0 -64.9942zm-0.992124 263.176c0,-62.1798 8.50392,-107.008 25.3295,-134.686 27.658,-45.3137 65.1562,-67.9908 112.333,-67.9908 38.4904,0 71.6759,16.6636 99.6578,50.1731 28.0022,33.3273 42.0134,82.9942 42.0134,149.163 0,67.6669 -13.505,117.658 -40.3329,149.831 -26.8481,32.1732 -59.3452,48.3306 -97.3294,48.3306 -38.5106,0 -71.6759,-16.6636 -99.6781,-49.9909 -28.0022,-33.3475 -41.9932,-81.6781 -41.9932,-144.83z"
     id="path321" /></glyph>
   <glyph
   unicode="a"
   horiz-adv-x="556"
   id="glyph323"><path
     d="M404.341 64.0021c-32.6793,-27.6782 -64.0021,-47.1765 -94.0088,-58.677 -30.1687,-11.3183 -62.5038,-16.9876 -97.0054,-16.9876 -56.9965,0 -100.67,13.829 -131.325,41.6692 -30.4926,27.82 -45.8402,63.4959 -45.8402,106.663 0,25.4915 5.66928,48.6546 17.3318,69.6714 11.5005,20.9966 26.6659,37.8222 45.334,50.4971 18.8301,12.6546 39.8469,22.3329 63.3339,28.8323 17.1698,4.49493 43.1675,8.98986 78.0133,13.1608 70.9875,8.50392 123.327,18.5061 156.816,30.3306 0.344206,12.0067 0.506186,19.6805 0.506186,22.8391 0,35.8379 -8.32169,61.1675 -25.0056,75.6646 -22.3329,20.0045 -55.8221,29.8245 -99.9818,29.8245 -41.3452,0 -71.8379,-7.14734 -91.6803,-21.6647 -19.6602,-14.4972 -34.1574,-40.1506 -43.6534,-77.001l-85.8491 11.8447c7.83575,36.6681 20.6726,66.4925 38.5106,88.9874 17.838,22.6771 43.8357,40.1709 77.6691,52.3396 33.8334,12.1687 72.992,18.3442 117.658,18.3442 44.3419,0 80.1595,-5.34532 107.838,-15.6715 27.658,-10.5084 48.0066,-23.5073 61.1675,-39.3407 12.9988,-15.8335 21.9887,-35.6557 27.334,-59.8311 2.83464,-15.0033 4.33295,-41.9932 4.33295,-80.9897l0 -117.172c0,-81.8401 1.82227,-133.512 5.66928,-154.994 3.66478,-21.685 11.1563,-42.4993 22.1507,-62.3418l-91.8221 0c-9.0101,18.1619 -15.0033,39.5027 -17.4938,64.0021zm-7.34981 196.339c-31.9909,-13.1811 -79.8153,-24.1754 -143.493,-33.3475 -36.1619,-5.16309 -61.8356,-10.9944 -76.6567,-17.4938 -15.0033,-6.49942 -26.6659,-15.9955 -34.6838,-28.6704 -8.15971,-12.4927 -12.3307,-26.3217 -12.3307,-41.6692 0,-23.487 9.0101,-42.9853 26.6659,-58.6568 17.676,-15.5095 43.6737,-23.3453 77.8311,-23.3453 33.8334,0 64.0021,7.34981 90.344,22.1709 26.3419,14.8414 45.8402,35.1698 58.1708,60.8435 9.49604,19.8222 14.1529,49.1607 14.1529,87.8333l0 32.3351z"
     id="path325" /></glyph>
   <glyph
   unicode="`"
   horiz-adv-x="333"
   id="glyph327"><path
     d="M226.994 583.004l-70.6635 0 -112.839 136.67 117.678 0 65.8244 -136.67z"
     id="path329" /></glyph>
   <glyph
   unicode=""
   horiz-adv-x="750"
   id="glyph331"><path
     d="M125.008 0l0 624.997 499.99 0 0 -624.997 -499.99 0zm15.6513 15.6715l468.667 0 0 593.654 -468.667 0 0 -593.654z"
     id="path333" /></glyph>
   <glyph
   unicode="~"
   horiz-adv-x="583"
   id="glyph335"><path
     d="M42.4993 272.004l0 100.002c34.5016,39.1585 79.6736,58.6568 135.658,58.6568 19.6805,0 40.1709,-2.83464 61.5117,-8.50392 21.5028,-5.64903 52.1574,-16.9876 91.8221,-33.9954 22.5151,-9.49604 39.3407,-15.6715 50.5173,-18.5061 11.3183,-2.99662 22.6569,-4.49493 33.9954,-4.49493 21.1586,0 43.0055,6.33744 65.6624,19.1743 22.6771,12.6546 42.6613,28.6704 60.3373,47.8244l0 -103.485c-20.8346,-19.5185 -41.9932,-33.6715 -63.172,-42.5196 -21.3408,-8.82788 -45.334,-13.1608 -72.1618,-13.1608 -19.4983,0 -38.1664,2.16647 -55.8424,6.84363 -17.6558,4.49493 -45.8199,15.3273 -84.4925,32.6591 -38.5106,17.3318 -70.6635,25.8357 -96.3372,25.8357 -20.8346,0 -40.4948,-4.49493 -58.839,-13.3431 -18.4859,-8.98986 -41.325,-26.6659 -68.659,-52.9875z"
     id="path337" /></glyph>
   <glyph
   unicode="}"
   horiz-adv-x="334"
   id="glyph339"><path
     d="M305.675 298.832l0 -79.6736c-25.0056,-0.485938 -45.5162,-7.32957 -61.3497,-20.4904 -15.6513,-12.9988 -26.1597,-30.6748 -31.4847,-52.8255 -5.18334,-22.3329 -7.99773,-60.6815 -8.17996,-115.005 -0.323959,-54.5061 -1.33633,-90.1618 -2.99662,-107.494 -2.99662,-27.6782 -8.32169,-49.6669 -16.3397,-66.1686 -7.99773,-16.5017 -17.8177,-29.6827 -29.5005,-39.5027 -11.8245,-10.0022 -26.8278,-17.514 -44.9898,-22.6771 -12.3307,-3.66478 -32.4971,-5.48705 -60.4993,-5.48705l-27.334 0 0 76.6567 15.1653 0c33.8334,0 56.1664,6.17546 67.3429,18.3442 10.9944,12.1485 16.4814,39.6647 16.4814,82.326 0,81.3339 1.51856,133.005 4.51518,154.832 5.16309,35.9999 15.6513,64.9942 31.1608,86.659 15.6715,21.5028 37.8424,38.3486 66.4925,50.5173 -37.4982,17.8177 -63.8199,41.487 -79.1674,70.9875 -15.3273,29.5005 -23.0011,79.1674 -23.0011,149.163 0,63.5162 -0.647918,101.338 -2.32845,113.831 -2.32845,21.847 -8.6659,37.0123 -19.3363,45.6782 -10.4882,8.50392 -31.3228,12.8369 -62.1596,12.8369l-15.1653 0 0 76.6567 27.334 0c31.8289,0 54.992,-2.49043 69.3272,-7.83575 20.8346,-7.16759 38.0044,-19.1541 51.6714,-35.9999 13.667,-16.9876 22.6569,-38.3284 26.6659,-64.0021 4.00899,-25.8155 6.33744,-67.9908 6.6614,-126.486 0.182227,-58.677 2.99662,-99.0099 8.17996,-121.343 5.32507,-22.3329 15.8335,-39.9887 31.4847,-52.9875 15.8335,-13.0191 36.3441,-19.8425 61.3497,-20.5106z"
     id="path341" /></glyph>
   <glyph
   unicode="|"
   horiz-adv-x="259"
   id="glyph343"><path
     d="M91.8423 -210.492l0 938.488 76.6567 0 0 -938.488 -76.6567 0z"
     id="path345" /></glyph>
   <glyph
   unicode="{"
   horiz-adv-x="334"
   id="glyph347"><path
     d="M27.8402 298.832c24.9853,0.668165 45.496,7.32957 61.3294,20.3284 15.6715,12.8369 26.1597,30.5129 31.505,52.8458 5.16309,22.4949 7.81551,60.9852 8.15971,115.329 0.323959,54.3238 1.33633,90.1618 2.99662,107.332 2.99662,27.334 8.34194,49.343 16.3397,66.0066 7.99773,16.5017 17.838,29.8245 29.5005,39.8267 11.8245,9.84025 26.8278,17.4938 44.9898,22.6569 12.3307,3.17885 32.4971,4.83913 60.4993,4.83913l27.334 0 0 -76.6567 -15.1653 0c-33.8334,0 -56.1664,-6.01348 -67.3227,-18.3442 -11.0146,-12.1687 -16.5017,-39.3205 -16.5017,-81.6579 0,-85.3429 -1.84252,-139.181 -5.5073,-161.676 -5.83126,-34.8256 -15.8335,-61.6534 -30.0067,-80.5038 -14.1529,-18.9921 -36.3239,-35.6557 -66.6545,-50.3148 35.8379,-15.0033 61.8356,-37.8424 77.9931,-68.6793 15.9955,-30.6546 24.1754,-81.1719 24.1754,-151.167 0,-63.3339 0.485938,-101.156 1.82227,-113.163 2.67266,-22.1709 9.17208,-37.6602 19.8425,-46.5083 10.4882,-8.6659 31.3228,-13.1608 62.1596,-13.1608l15.1653 0 0 -76.6567 -27.334 0c-31.8289,0 -54.992,2.65241 -69.3272,7.81551 -20.8346,7.51179 -38.0044,19.6805 -51.6714,36.3441 -13.667,16.8256 -22.6569,38.0044 -26.6659,63.8401 -3.98874,25.6535 -6.33744,67.8289 -6.6614,126.486 -0.344206,58.5151 -2.99662,99.0099 -8.15971,121.505 -5.34532,22.4949 -15.8335,40.1709 -31.505,53.1697 -15.8335,13.1608 -36.3441,20.0045 -61.3294,20.4904l0 79.6736z"
     id="path349" /></glyph>
   <glyph
   unicode="z"
   horiz-adv-x="500"
   id="glyph351"><path
     d="M19.4983 0l0 71.3317 330.175 378.829c-37.4982,-1.98425 -70.5015,-2.83464 -99.1719,-2.83464l-211.505 0 0 71.1697 423.839 0 0 -57.9886 -280.67 -329.183 -54.1619 -59.9931c39.3205,2.83464 76.3328,4.33295 110.834,4.33295l239.669 0 0 -75.6646 -459.009 0z"
     id="path353" /></glyph>
   <glyph
   unicode="y"
   horiz-adv-x="500"
   id="glyph355"><path
     d="M61.9976 -199.66l-9.84025 82.488c19.3363,-5.16309 35.9999,-7.83575 50.3351,-7.83575 19.4983,0 35.1698,3.34082 46.8323,9.84025 11.8447,6.49942 21.3408,15.5095 28.8323,27.334 5.66928,8.6659 14.5174,30.4926 26.8481,65.3384 1.66029,5.00111 4.33295,11.9865 7.83575,21.5028l-196.683 519.488 94.677 0 108 -300.168c13.829,-38.1664 26.5039,-78.1551 37.4982,-120.168 10.1642,40.3329 22.1709,79.6736 36.1619,118.164l110.834 302.173 87.8333 0 -197.169 -527.324c-21.1586,-56.9965 -37.6602,-96.1753 -49.3227,-117.678 -15.6715,-28.9943 -33.5095,-50.1529 -53.6759,-63.6579 -20.3284,-13.505 -44.3216,-20.3284 -72.3238,-20.3284 -17.0078,0 -35.8379,3.66478 -56.6725,10.8324z"
     id="path357" /></glyph>
   <glyph
   unicode="x"
   horiz-adv-x="500"
   id="glyph359"><path
     d="M7.32957 0l189.496 269.493 -175.322 249.003 109.822 0 79.6736 -121.505c14.8414,-23.1631 27.0101,-42.4993 35.9999,-58.1506 14.3352,21.5028 27.496,40.4948 39.6647,57.1585l87.3271 122.497 105.003 0 -179.169 -244.164 192.836 -274.332 -107.818 0 -106.501 161.169 -28.3464 43.4915 -136.164 -204.661 -106.501 0z"
     id="path361" /></glyph>
   <glyph
   unicode="w"
   horiz-adv-x="722"
   id="glyph363"><path
     d="M161.676 0l-158.679 518.496 90.8299 0 82.5083 -299.338 30.6748 -111.32c1.31608,5.66928 10.3262,41.325 26.8278,106.987l82.488 303.671 90.344 0 77.6691 -300.654 25.9977 -99.1719 29.6625 100.164 88.8254 299.662 85.5049 0 -162.162 -518.496 -91.1741 0 -82.488 310.494 -20.1664 88.5015 -104.841 -398.996 -91.8221 0z"
     id="path365" /></glyph>
   <glyph
   unicode="v"
   horiz-adv-x="500"
   id="glyph367"><path
     d="M210.006 0l-197.331 518.496 92.8344 0 111.32 -310.494c12.0067,-33.5095 23.0011,-68.3351 33.1653,-104.497 7.83575,27.334 18.6681,60.1551 32.6793,98.6657l115.329 316.325 90.3238 0 -196.319 -518.496 -82.0021 0z"
     id="path369" /></glyph>
   <glyph
   unicode="u"
   horiz-adv-x="556"
   id="glyph371"><path
     d="M405.839 0l0 76.1708c-40.5151,-58.677 -95.3451,-87.8333 -164.672,-87.8333 -30.4926,0 -59.163,5.83126 -85.6668,17.4938 -26.5039,11.6625 -46.1641,26.5039 -59.001,44.1596 -12.9988,17.838 -22.0089,39.5027 -27.172,65.1765 -3.5028,17.3318 -5.32507,44.6658 -5.32507,82.164l0 321.165 87.8333 0 0 -287.493c0,-46.0021 1.82227,-76.839 5.32507,-92.8344 5.66928,-23.1631 17.3318,-41.163 35.1698,-54.5061 18,-13.1608 40.1709,-19.6602 66.5128,-19.6602 26.3217,0 50.983,6.6614 74.1663,20.1664 23.1631,13.505 39.4825,31.9909 48.9988,55.1742 9.65802,23.325 14.4972,57.1585 14.4972,101.318l0 277.835 87.8333 0 0 -518.496 -78.4993 0z"
     id="path373" /></glyph>
   <glyph
   unicode="t"
   horiz-adv-x="277"
   id="glyph375"><path
     d="M257.831 78.6612l12.6749 -77.6691c-24.6816,-5.16309 -46.8323,-7.81551 -66.3306,-7.81551 -32.0112,0 -56.6725,4.98087 -74.3485,15.1653 -17.4938,9.98198 -29.8245,23.325 -36.992,39.8267 -7.16759,16.3397 -10.8324,51.0033 -10.8324,103.667l0 298.326 -64.5083 0 0 68.3351 64.5083 0 0 128.51 87.4891 52.6635 0 -181.174 88.3395 0 0 -68.3351 -88.3395 0 0 -303.165c0,-25.1675 1.51856,-41.163 4.51518,-48.3306 3.1586,-7.16759 8.15971,-12.8369 15.1653,-17.1698 6.98536,-4.17097 16.9876,-6.33744 29.9864,-6.33744 9.84025,0 22.6771,1.17435 38.6726,3.5028z"
     id="path377" /></glyph>
   <glyph
   unicode="s"
   horiz-adv-x="500"
   id="glyph379"><path
     d="M30.8368 154.832l86.821 13.667c4.83913,-34.8256 18.5061,-61.4914 40.8391,-80.1595 22.1709,-18.5061 53.3317,-27.8402 93.5026,-27.8402 40.3329,0 70.3395,8.34194 89.8378,24.6614 19.4983,16.5017 29.3385,35.8379 29.3385,57.8469 0,19.9842 -8.6659,35.4937 -26.0179,46.9943 -11.9865,7.83575 -41.9932,17.6558 -89.8176,29.6625 -64.3463,16.3397 -109.174,30.3306 -133.997,42.3374 -24.8436,11.8245 -43.8357,28.3261 -56.6725,49.3227 -12.8369,21.0168 -19.3363,44.1799 -19.3363,69.5094 0,23.1631 5.32507,44.5038 15.9955,64.1641 10.5084,19.8425 25.0056,36.1619 43.1675,49.1607 13.667,10.0022 32.3351,18.6681 55.8424,25.6737 23.6692,7.00561 48.9988,10.5084 75.9886,10.5084 40.6771,0 76.3328,-6.01348 107.17,-17.676 30.8368,-11.6625 53.4937,-27.496 68.1731,-47.5005 14.6591,-20.1664 24.6614,-46.8323 30.1687,-80.3215l-85.8491 -11.8447c-3.98874,26.6659 -15.3273,47.5005 -33.9954,62.5038 -18.6681,15.0033 -45.1518,22.4949 -79.3294,22.4949 -40.3329,0 -69.1652,-6.6614 -86.335,-20.0045 -17.3318,-13.3228 -25.9977,-28.9943 -25.9977,-46.8323 0,-11.5005 3.66478,-21.6647 10.8324,-30.8166 7.16759,-9.51629 18.3442,-17.1698 33.6715,-23.5073 8.82788,-3.17885 34.6636,-10.6704 77.6691,-22.3329 62.1596,-16.6636 105.489,-30.1687 129.988,-40.8391 24.6816,-10.4882 43.9977,-25.9977 58.0089,-46.1641 13.991,-20.1664 20.9966,-45.172 20.9966,-75.1584 0,-29.3385 -8.6659,-56.8345 -25.6737,-82.8322 -17.1496,-25.8357 -41.8312,-45.8402 -73.9841,-60.0134 -32.1732,-14.1529 -68.6793,-21.1586 -109.336,-21.1586 -67.5049,0 -118.832,13.991 -154.164,41.9932 -35.3318,28.0022 -57.8469,69.5094 -67.5049,124.501z"
     id="path381" /></glyph>
   <glyph
   unicode="r"
   horiz-adv-x="333"
   id="glyph383"><path
     d="M64.9942 0l0 518.496 79.0054 0 0 -78.4993c20.1664,36.6681 38.8346,61.0055 56.0044,72.668 16.9876,11.6625 35.8379,17.676 56.3283,17.676 29.6625,0 59.6692,-9.51629 90.344,-28.3464l-30.3509 -81.6579c-21.3205,12.8369 -42.8233,19.1541 -64.3261,19.1541 -19.3363,0 -36.5061,-5.83126 -51.8334,-17.3318 -15.3273,-11.6625 -26.1597,-27.658 -32.6591,-48.1686 -9.84025,-31.1608 -14.6794,-65.3182 -14.6794,-102.492l0 -271.498 -87.8333 0z"
     id="path385" /></glyph>
   <glyph
   unicode="q"
   horiz-adv-x="556"
   id="glyph387"><path
     d="M396.505 -198.668l0 253.842c-13.667,-19.1743 -32.8413,-35.1698 -57.3407,-47.8447 -24.6614,-12.6546 -50.8413,-18.9921 -78.4993,-18.9921 -61.4914,0 -114.499,24.4994 -158.841,73.6601 -44.4836,49.1607 -66.6545,116.504 -66.6545,202.171 0,51.9954 8.98986,98.8277 27.172,140.173 18,41.325 44.1596,72.668 78.4993,93.9885 34.3194,21.3408 71.9998,32.0112 113.001,32.0112 64.1641,0 114.661,-27.0101 151.491,-81.1719l0 69.3272 79.0054 0 0 -717.164 -87.8333 0zm-271.012 459.333c0,-66.6748 14.0112,-116.666 42.0134,-149.993 28.0022,-33.5095 61.4914,-50.1731 100.488,-50.1731 37.4982,0 69.6714,15.8335 96.6814,47.6624 27.1518,31.667 40.6568,79.9976 40.6568,144.83 0,69.0032 -14.3352,120.837 -42.8233,155.682 -28.5084,34.8256 -61.8356,52.3193 -100.346,52.3193 -38.0044,0 -70.3395,-16.3194 -96.8232,-48.6546 -26.5039,-32.3351 -39.8469,-82.8322 -39.8469,-151.673z"
     id="path389" /></glyph>
   <glyph
   unicode="p"
   horiz-adv-x="556"
   id="glyph391"><path
     d="M66.0066 -198.668l0 717.164 79.9976 0 0 -67.3227c18.8301,26.3217 40.1709,46.1641 64.0021,59.325 23.6692,13.1608 52.5016,19.8425 86.335,19.8425 44.3216,0 83.3181,-11.5005 117.152,-34.1777 34.0157,-22.8391 59.5072,-54.992 76.677,-96.4992 17.3318,-41.5072 25.9977,-87.0032 25.9977,-136.488 0,-53.0078 -9.49604,-100.852 -28.6704,-143.352 -18.9921,-42.4993 -46.6703,-74.9965 -82.9942,-97.6533 -36.3441,-22.4949 -74.5105,-33.8334 -114.499,-33.8334 -29.3385,0 -55.4982,6.15522 -78.8435,18.4859 -23.325,12.3509 -42.3171,28.0022 -57.3205,46.8525l0 -252.344 -87.8333 0zm79.4914 455c0,-66.6748 13.505,-115.997 40.4948,-148.009 27.0101,-31.8289 59.8311,-47.8244 98.1798,-47.8244 38.9965,0 72.4858,16.5017 100.326,49.6669 27.8402,33.0033 41.8312,84.1685 41.8312,153.496 0,66.1686 -13.667,115.512 -40.8391,148.495 -27.1518,32.8413 -59.6489,49.343 -97.3294,49.343 -37.4982,0 -70.6635,-17.4938 -99.4958,-52.5016 -28.8323,-35.0078 -43.1675,-85.9908 -43.1675,-152.666z"
     id="path393" /></glyph>
   <glyph
   unicode=""
   horiz-adv-x="750"
   id="glyph395"><path
     d="M125.008 0l0 624.997 499.99 0 0 -624.997 -499.99 0zm15.6513 15.6715l468.667 0 0 593.654 -468.667 0 0 -593.654z"
     id="path397" /></glyph>
   <glyph
   unicode=""
   horiz-adv-x="750"
   id="glyph399"><path
     d="M125.008 0l0 624.997 499.99 0 0 -624.997 -499.99 0zm15.6513 15.6715l468.667 0 0 593.654 -468.667 0 0 -593.654z"
     id="path401" /></glyph>
   <glyph
   unicode=""
   horiz-adv-x="750"
   id="glyph403"><path
     d="M125.008 0l0 624.997 499.99 0 0 -624.997 -499.99 0zm15.6513 15.6715l468.667 0 0 593.654 -468.667 0 0 -593.654z"
     id="path405" /></glyph>
   <glyph
   unicode=""
   horiz-adv-x="750"
   id="glyph407"><path
     d="M125.008 0l0 624.997 499.99 0 0 -624.997 -499.99 0zm15.6513 15.6715l468.667 0 0 593.654 -468.667 0 0 -593.654z"
     id="path409" /></glyph>
   <glyph
   unicode=""
   horiz-adv-x="750"
   id="glyph411"><path
     d="M125.008 0l0 624.997 499.99 0 0 -624.997 -499.99 0zm15.6513 15.6715l468.667 0 0 593.654 -468.667 0 0 -593.654z"
     id="path413" /></glyph>
   <glyph
   unicode=""
   horiz-adv-x="750"
   id="glyph415"><path
     d="M125.008 0l0 624.997 499.99 0 0 -624.997 -499.99 0zm15.6513 15.6715l468.667 0 0 593.654 -468.667 0 0 -593.654z"
     id="path417" /></glyph>
   <glyph
   unicode=""
   horiz-adv-x="750"
   id="glyph419"><path
     d="M125.008 0l0 624.997 499.99 0 0 -624.997 -499.99 0zm15.6513 15.6715l468.667 0 0 593.654 -468.667 0 0 -593.654z"
     id="path421" /></glyph>
   <glyph
   unicode=""
   horiz-adv-x="750"
   id="glyph423"><path
     d="M125.008 0l0 624.997 499.99 0 0 -624.997 -499.99 0zm15.6513 15.6715l468.667 0 0 593.654 -468.667 0 0 -593.654z"
     id="path425" /></glyph>
   <glyph
   unicode=""
   horiz-adv-x="750"
   id="glyph427"><path
     d="M125.008 0l0 624.997 499.99 0 0 -624.997 -499.99 0zm15.6513 15.6715l468.667 0 0 593.654 -468.667 0 0 -593.654z"
     id="path429" /></glyph>
   <glyph
   unicode=""
   horiz-adv-x="750"
   id="glyph431"><path
     d="M125.008 0l0 624.997 499.99 0 0 -624.997 -499.99 0zm15.6513 15.6715l468.667 0 0 593.654 -468.667 0 0 -593.654z"
     id="path433" /></glyph>
   <glyph
   unicode=""
   horiz-adv-x="750"
   id="glyph435"><path
     d="M125.008 0l0 624.997 499.99 0 0 -624.997 -499.99 0zm15.6513 15.6715l468.667 0 0 593.654 -468.667 0 0 -593.654z"
     id="path437" /></glyph>
   <glyph
   unicode=""
   horiz-adv-x="750"
   id="glyph439"><path
     d="M125.008 0l0 624.997 499.99 0 0 -624.997 -499.99 0zm15.6513 15.6715l468.667 0 0 593.654 -468.667 0 0 -593.654z"
     id="path441" /></glyph>
   <glyph
   unicode=""
   horiz-adv-x="750"
   id="glyph443"><path
     d="M125.008 0l0 624.997 499.99 0 0 -624.997 -499.99 0zm15.6513 15.6715l468.667 0 0 593.654 -468.667 0 0 -593.654z"
     id="path445" /></glyph>
   <glyph
   unicode=""
   horiz-adv-x="750"
   id="glyph447"><path
     d="M125.008 0l0 624.997 499.99 0 0 -624.997 -499.99 0zm15.6513 15.6715l468.667 0 0 593.654 -468.667 0 0 -593.654z"
     id="path449" /></glyph>
   <glyph
   unicode=""
   horiz-adv-x="750"
   id="glyph451"><path
     d="M125.008 0l0 624.997 499.99 0 0 -624.997 -499.99 0zm15.6513 15.6715l468.667 0 0 593.654 -468.667 0 0 -593.654z"
     id="path453" /></glyph>
   <glyph
   unicode=""
   horiz-adv-x="750"
   id="glyph455"><path
     d="M125.008 0l0 624.997 499.99 0 0 -624.997 -499.99 0zm15.6513 15.6715l468.667 0 0 593.654 -468.667 0 0 -593.654z"
     id="path457" /></glyph>
   <glyph
   unicode=""
   horiz-adv-x="750"
   id="glyph459"><path
     d="M125.008 0l0 624.997 499.99 0 0 -624.997 -499.99 0zm15.6513 15.6715l468.667 0 0 593.654 -468.667 0 0 -593.654z"
     id="path461" /></glyph>
   <glyph
   unicode=""
   horiz-adv-x="750"
   id="glyph463"><path
     d="M125.008 0l0 624.997 499.99 0 0 -624.997 -499.99 0zm15.6513 15.6715l468.667 0 0 593.654 -468.667 0 0 -593.654z"
     id="path465" /></glyph>
   <glyph
   unicode=""
   horiz-adv-x="750"
   id="glyph467"><path
     d="M125.008 0l0 624.997 499.99 0 0 -624.997 -499.99 0zm15.6513 15.6715l468.667 0 0 593.654 -468.667 0 0 -593.654z"
     id="path469" /></glyph>
   <glyph
   unicode=""
   horiz-adv-x="750"
   id="glyph471"><path
     d="M125.008 0l0 624.997 499.99 0 0 -624.997 -499.99 0zm15.6513 15.6715l468.667 0 0 593.654 -468.667 0 0 -593.654z"
     id="path473" /></glyph>
   <glyph
   unicode=""
   horiz-adv-x="750"
   id="glyph475"><path
     d="M125.008 0l0 624.997 499.99 0 0 -624.997 -499.99 0zm15.6513 15.6715l468.667 0 0 593.654 -468.667 0 0 -593.654z"
     id="path477" /></glyph>
   <glyph
   unicode=""
   horiz-adv-x="750"
   id="glyph479"><path
     d="M125.008 0l0 624.997 499.99 0 0 -624.997 -499.99 0zm15.6513 15.6715l468.667 0 0 593.654 -468.667 0 0 -593.654z"
     id="path481" /></glyph>
   <glyph
   unicode=""
   horiz-adv-x="750"
   id="glyph483"><path
     d="M125.008 0l0 624.997 499.99 0 0 -624.997 -499.99 0zm15.6513 15.6715l468.667 0 0 593.654 -468.667 0 0 -593.654z"
     id="path485" /></glyph>
   <glyph
   unicode=""
   horiz-adv-x="750"
   id="glyph487"><path
     d="M125.008 0l0 624.997 499.99 0 0 -624.997 -499.99 0zm15.6513 15.6715l468.667 0 0 593.654 -468.667 0 0 -593.654z"
     id="path489" /></glyph>
   <glyph
   unicode=""
   horiz-adv-x="750"
   id="glyph491"><path
     d="M125.008 0l0 624.997 499.99 0 0 -624.997 -499.99 0zm15.6513 15.6715l468.667 0 0 593.654 -468.667 0 0 -593.654z"
     id="path493" /></glyph>
   <glyph
   unicode=""
   horiz-adv-x="750"
   id="glyph495"><path
     d="M125.008 0l0 624.997 499.99 0 0 -624.997 -499.99 0zm15.6513 15.6715l468.667 0 0 593.654 -468.667 0 0 -593.654z"
     id="path497" /></glyph>
   <glyph
   unicode=""
   horiz-adv-x="750"
   id="glyph499"><path
     d="M125.008 0l0 624.997 499.99 0 0 -624.997 -499.99 0zm15.6513 15.6715l468.667 0 0 593.654 -468.667 0 0 -593.654z"
     id="path501" /></glyph>
   <glyph
   unicode=""
   horiz-adv-x="750"
   id="glyph503"><path
     d="M125.008 0l0 624.997 499.99 0 0 -624.997 -499.99 0zm15.6513 15.6715l468.667 0 0 593.654 -468.667 0 0 -593.654z"
     id="path505" /></glyph>
   <glyph
   unicode=""
   horiz-adv-x="750"
   id="glyph507"><path
     d="M125.008 0l0 624.997 499.99 0 0 -624.997 -499.99 0zm15.6513 15.6715l468.667 0 0 593.654 -468.667 0 0 -593.654z"
     id="path509" /></glyph>
   <glyph
   unicode=""
   horiz-adv-x="750"
   id="glyph511"><path
     d="M125.008 0l0 624.997 499.99 0 0 -624.997 -499.99 0zm15.6513 15.6715l468.667 0 0 593.654 -468.667 0 0 -593.654z"
     id="path513" /></glyph>
   <glyph
   unicode=""
   horiz-adv-x="750"
   id="glyph515"><path
     d="M125.008 0l0 624.997 499.99 0 0 -624.997 -499.99 0zm15.6513 15.6715l468.667 0 0 593.654 -468.667 0 0 -593.654z"
     id="path517" /></glyph>
   <glyph
   unicode=""
   horiz-adv-x="750"
   id="glyph519"><path
     d="M125.008 0l0 624.997 499.99 0 0 -624.997 -499.99 0zm15.6513 15.6715l468.667 0 0 593.654 -468.667 0 0 -593.654z"
     id="path521" /></glyph>
   <glyph
   unicode="¯"
   horiz-adv-x="552"
   id="glyph523"><path
     d="M-15.1653 764.664l0 63.01 582.498 0 0 -63.01 -582.498 0z"
     id="path525" /></glyph>
   <glyph
   unicode="®"
   horiz-adv-x="736"
   id="glyph527"><path
     d="M370.163 727.996c61.8356,0 122.173,-15.8335 181.174,-47.5005 58.839,-31.8289 104.821,-77.1629 137.662,-136.326 32.8413,-59.001 49.343,-120.675 49.343,-184.839 0,-63.4959 -16.1777,-124.501 -48.6748,-182.996 -32.3351,-58.677 -77.8311,-104.173 -136.164,-136.508 -58.4948,-32.4971 -119.5,-48.6546 -183.34,-48.6546 -63.8401,0 -124.987,16.1574 -183.32,48.6546 -58.5151,32.3351 -104.011,77.8311 -136.508,136.508 -32.6591,58.4948 -48.8368,119.5 -48.8368,182.996 0,64.1641 16.5017,125.838 49.505,184.839 33.0033,59.163 79.0054,104.497 138.006,136.326 58.8188,31.667 119.318,47.5005 181.154,47.5005zm0 -61.0055c-51.8334,0 -102.168,-13.3228 -151.167,-39.8267 -48.9988,-26.5039 -87.3271,-64.488 -115.005,-113.669 -27.658,-49.3227 -41.487,-100.67 -41.487,-154.164 0,-53.0078 13.667,-103.829 40.8391,-152.504 27.1518,-48.6546 65.1562,-86.659 113.993,-113.831 48.8368,-27.172 99.6578,-40.8391 152.828,-40.8391 53.0078,0 104.011,13.667 152.828,40.8391 48.8368,27.172 86.6792,65.1765 113.669,113.831 27.0101,48.6748 40.5151,99.4958 40.5151,152.504 0,53.4937 -13.667,104.841 -41.1833,154.164 -27.496,49.181 -65.8244,87.1652 -114.985,113.669 -49.181,26.5039 -99.5161,39.8267 -150.843,39.8267zm-161.655 -511.166l0 396.343 136.164 0c46.6703,0 80.3215,-3.5028 101.156,-10.8324 20.8346,-7.32957 37.3362,-20.1664 49.8289,-38.3284 12.3509,-18.3442 18.5061,-37.6805 18.5061,-58.1708 0,-28.9943 -10.3262,-54.1619 -30.9988,-75.6646 -20.6726,-21.5028 -48.1686,-33.5095 -82.326,-36.1619 13.991,-5.85151 25.3295,-12.8369 33.6715,-21.0168 15.9955,-15.6513 35.4937,-41.8312 58.6568,-78.6612l48.3306 -77.5071 -78.1551 0 -35.1698 62.5038c-27.6782,48.9988 -49.8289,79.8356 -66.8367,92.1663 -11.6625,9.17208 -28.8323,13.667 -51.3272,13.667l-37.4982 0 0 -168.337 -64.0021 0zm64.0021 223.005l77.6489 0c37.0123,0 62.3418,5.66928 75.8468,16.6636 13.4848,11.0146 20.3284,25.6737 20.3284,43.9977 0,11.6828 -3.34082,22.1709 -9.84025,31.505 -6.49942,9.17208 -15.4893,16.1777 -26.9898,20.6726 -11.6625,4.65691 -33.0033,6.82338 -64.3463,6.82338l-72.6478 0 0 -119.662z"
     id="path529" /></glyph>
   <glyph
   unicode="­"
   horiz-adv-x="333"
   id="glyph531"><path
     d="M31.667 214.825l0 88.3395 270.161 0 0 -88.3395 -270.161 0z"
     id="path533" /></glyph>
   <glyph
   unicode="¬"
   horiz-adv-x="583"
   id="glyph535"><path
     d="M528.336 207.01l-82.9942 0 0 213.833 -389.682 0 0 82.164 472.676 0 0 -295.997z"
     id="path537" /></glyph>
   <glyph
   unicode="«"
   horiz-adv-x="556"
   id="glyph539"><path
     d="M166.009 257.831l126.486 -222.661 -71.3317 0 -155.662 222.661 155.662 222.661 72.344 0 -127.498 -222.661zm188.989 0l128.834 -222.661 -74.1663 0 -152.828 222.661 152.828 222.661 74.1663 0 -128.834 -222.661z"
     id="path541" /></glyph>
   <glyph
   unicode="ª"
   horiz-adv-x="370"
   id="glyph543"><path
     d="M267.509 416.51c-39.685,-34.8458 -81.3339,-52.1776 -125.008,-52.1776 -36.6681,0 -65.8446,10.0022 -87.3271,30.0067 -21.5028,20.0045 -32.1732,45.6579 -32.1732,76.8187 0,15.6715 2.49043,29.3385 7.83575,41.001 5.16309,11.8447 12.8369,22.1709 23.1631,31.343 10.1642,8.98986 23.5073,16.3397 39.8267,21.9887 11.3386,3.5028 27.5162,7.00561 48.3306,10.1845l71.6759 10.8324c23.5073,4.49493 39.1585,7.65353 46.8323,9.65802 -0.161979,22.8391 -2.49043,38.1664 -6.82338,46.0021 -4.17097,7.67377 -12.0067,14.4972 -23.6692,20.1664 -11.5005,5.66928 -26.8481,8.50392 -46.0021,8.50392 -25.8357,0 -45.01,-5.16309 -57.6647,-15.8335 -12.6749,-10.5084 -20.5106,-25.6737 -23.5073,-45.172l-66.8367 16.6636c3.84701,28.9943 18.1619,53.1697 43.0055,72.506 24.6614,19.3363 59.9931,28.9943 105.833,28.9943 53.4937,0 91.1741,-9.82 113.325,-29.8245 21.847,-20.1664 32.6793,-49.505 32.6793,-88.3395l0 -117.172 -0.506186 -29.8245c0,-43.5117 6.6614,-73.4981 20.1664,-89.8378l-72.3238 0c-6.49942,12.9988 -10.1845,27.496 -10.8324,43.5117zm-7.16759 122.497c-17.3318,-4.51518 -48.5128,-10.3464 -93.8468,-17.514 -29.3183,-4.49493 -48.3306,-10.9944 -57.1585,-18.9921 -9.0101,-8.50392 -13.667,-18.9921 -13.667,-31.343 0,-13.3228 5.5073,-24.6614 16.6636,-34.1574 10.9944,-9.49604 26.6659,-14.1732 46.8323,-14.1732 23.8312,0 44.5038,6.33744 61.9976,19.0123 17.676,12.8369 29.3385,28.3261 35.1698,46.9943 2.32845,6.49942 3.66478,23.1631 4.00899,50.1731z"
     id="path545" /></glyph>
   <glyph
   unicode="©"
   horiz-adv-x="736"
   id="glyph547"><path
     d="M370.163 727.996c61.8356,0 122.173,-15.8335 181.174,-47.5005 58.839,-31.8289 104.821,-77.1629 137.662,-136.326 32.8413,-59.001 49.343,-120.675 49.343,-184.839 0,-63.4959 -16.1777,-124.501 -48.6748,-182.996 -32.3351,-58.677 -77.8311,-104.173 -136.164,-136.508 -58.4948,-32.4971 -119.5,-48.6546 -183.34,-48.6546 -63.8401,0 -124.987,16.1574 -183.32,48.6546 -58.5151,32.3351 -104.011,77.8311 -136.508,136.508 -32.6591,58.4948 -48.8368,119.5 -48.8368,182.996 0,64.1641 16.5017,125.838 49.505,184.839 33.0033,59.163 79.0054,104.497 138.006,136.326 58.8188,31.667 119.318,47.5005 181.154,47.5005zm0 -61.0055c-51.8334,0 -102.168,-13.3228 -151.167,-39.8267 -48.9988,-26.5039 -87.3271,-64.488 -115.005,-113.669 -27.658,-49.3227 -41.487,-100.67 -41.487,-154.164 0,-53.0078 13.667,-103.829 40.8391,-152.504 27.1518,-48.6546 65.1562,-86.659 113.993,-113.831 48.8368,-27.172 99.6578,-40.8391 152.828,-40.8391 53.0078,0 104.011,13.667 152.828,40.8391 48.8368,27.172 86.6792,65.1765 113.669,113.831 27.0101,48.6748 40.5151,99.4958 40.5151,152.504 0,53.4937 -13.667,104.841 -41.1833,154.164 -27.496,49.181 -65.8244,87.1652 -114.985,113.669 -49.181,26.5039 -99.5161,39.8267 -150.843,39.8267zm118.164 -367.167l60.0134 -17.6558c-9.84025,-40.6771 -30.5129,-73.1742 -62.1798,-97.3294 -31.8289,-24.3374 -70.3193,-36.3441 -115.491,-36.3441 -57.3407,0 -103.829,18.5061 -139.667,55.6804 -35.8379,36.992 -53.8379,88.5015 -53.8379,154.164 0,42.9853 8.15971,80.3215 24.4994,112.171 16.3397,31.667 39.5027,55.6602 69.5094,71.6556 30.1687,16.1777 64.65,24.1754 103.323,24.1754 43.3295,0 79.3294,-10.3464 108,-30.9988 28.5084,-20.6726 48.1686,-48.6748 58.4948,-84.1685l-58.1506 -14.1732c-9.67827,24.1754 -24.1754,42.4993 -43.1675,55.4982 -19.0123,12.8369 -41.3452,19.1743 -67.181,19.1743 -37.316,0 -68.1528,-13.3431 -92.4902,-40.0089 -24.1754,-26.6659 -36.3441,-64.9942 -36.3441,-114.661 0,-49.8289 11.5005,-87.5094 34.3396,-113.163 23.0011,-25.5118 52.6635,-38.3486 89.1697,-38.3486 29.3385,0 54.992,8.50392 77.1629,25.5118 22.1709,16.8256 36.8301,39.8267 43.9977,68.821z"
     id="path549" /></glyph>
   <glyph
   unicode="¨"
   horiz-adv-x="333"
   id="glyph551"><path
     d="M29.8245 620.158l0 100.002 91.8423 0 0 -100.002 -91.8423 0zm182.004 0l0 100.002 91.8423 0 0 -100.002 -91.8423 0z"
     id="path553" /></glyph>
   <glyph
   unicode="§"
   horiz-adv-x="556"
   id="glyph555"><path
     d="M69.8334 -34.1574l88.3395 12.6546c9.15184,-42.3374 23.6692,-71.9998 43.4915,-89.1697 19.8425,-16.9876 46.8323,-25.4915 81.0099,-25.4915 33.3273,0 59.163,8.32169 77.9931,25.3295 18.6681,17.0078 28.0022,36.8301 28.0022,59.5072 0,16.6636 -5.83126,31.9909 -17.4938,46.0021 -20.3487,24.3172 -75.6849,64.3261 -166.171,119.662 -48.1686,29.5005 -81.6781,52.6635 -100.832,69.4892 -19.0123,16.8459 -34.5016,36.5061 -46.5083,59.3452 -12.1687,22.8188 -18.1619,46.4881 -18.1619,71.3317 0,31.1608 9.84025,59.4869 29.3385,84.8367 19.4983,25.4915 46.3261,43.1675 80.4835,53.3317 -23.0011,22.1709 -39.3205,42.4993 -48.6546,61.3294 -9.49604,18.6681 -14.1732,38.4904 -14.1732,59.6692 0,41.6692 16.1777,77.8311 48.8368,108.506 32.4971,30.4926 75.6646,45.8199 129.341,45.8199 60.8233,0 108.324,-14.4972 142.501,-43.4915 34.1574,-28.8323 54.6478,-70.8457 61.6534,-125.838l-91.3361 -9.33406c-6.82338,39.6647 -18.8301,67.3429 -35.9999,82.9942 -16.9876,15.6715 -39.9887,23.5073 -68.983,23.5073 -30.0067,0 -54.1821,-8.15971 -72.506,-24.1754 -18.5061,-16.1574 -27.6782,-33.9954 -27.6782,-53.4937 0,-17.0078 5.83126,-32.6591 17.676,-46.8323 18.1619,-22.1709 67.9908,-58.0089 149.325,-107.494 51.1652,-31.343 85.6668,-54.1821 103.505,-68.8412 23.1631,-19.4983 40.1709,-39.6647 51.0033,-60.4993 10.9944,-20.8346 16.5017,-43.4915 16.5017,-67.9908 0,-36.6681 -12.0067,-68.1731 -35.676,-94.1708 -13.667,-15.0033 -38.8346,-30.1687 -75.3204,-45.496 26.1597,-19.8425 45.496,-41.1833 58.4948,-63.8401 12.8369,-22.8391 19.1743,-47.3385 19.1743,-73.3362 0,-28.6704 -8.17996,-55.6602 -24.3374,-81.3339 -16.3397,-25.4915 -39.6647,-44.9898 -70.3395,-58.4948 -30.6748,-13.505 -63.6579,-20.3284 -99.1719,-20.3284 -62.1596,0 -111.503,15.6513 -147.826,46.6501 -36.5061,31.181 -58.3328,74.3485 -65.5004,129.685zm285.671 153.334c23.9932,12.3307 41.9932,26.6659 53.9999,43.1473 11.8245,16.5017 17.6558,32.5174 17.6558,48.1686 0,18.5061 -8.32169,38.0044 -25.3295,58.5151 -17.1698,20.4904 -53.8379,47.9864 -109.822,82.488 -44.6658,27.334 -77.8513,49.8289 -99.6781,67.5049 -26.3217,-15.0033 -45.172,-30.0067 -56.3283,-45.01 -11.1766,-14.9831 -16.8256,-31.4847 -16.8256,-49.8289 0,-20.4904 7.49155,-39.9887 22.4949,-58.4948 14.8211,-18.6681 48.6546,-43.3295 100.994,-74.3283 43.6737,-25.6737 81.1719,-49.6669 112.839,-72.1618z"
     id="path557" /></glyph>
   <glyph
   unicode="¦"
   horiz-adv-x="259"
   id="glyph559"><path
     d="M168.499 727.996l0 -385.653 -76.6567 0 0 385.653 76.6567 0zm0 -552.167l0 -386.321 -76.6567 0 0 386.321 76.6567 0z"
     id="path561" /></glyph>
   <glyph
   unicode="¥"
   horiz-adv-x="556"
   id="glyph563"><path
     d="M232.825 0l0 158.659 -202.494 0 0 67.8491 202.494 0 0 69.8334 -202.494 0 0 72.3238 166.495 0 -198.324 347.162 97.6736 0 141.651 -251.999c15.8335,-28.6704 28.3464,-53.6557 37.0123,-75.1584 7.49155,17.3318 20.8346,43.8357 40.1709,79.6736l133.653 247.484 104.497 0 -197.655 -347.162 166.495 0 0 -72.3238 -201.158 0 0 -69.8334 201.158 0 0 -67.8491 -201.158 0 0 -158.659 -88.0156 0z"
     id="path565" /></glyph>
   <glyph
   unicode="¤"
   horiz-adv-x="556"
   id="glyph567"><path
     d="M103.991 469.173l-67.8289 66.4925 56.1664 58.1708 67.8289 -68.0111c34.5016,23.5073 73.0122,35.1698 115.674,35.1698 43.0055,0 81.6781,-11.6625 115.836,-35.1698l67.8289 68.0111 56.6725 -58.1708 -67.9908 -66.4925c23.1631,-35.676 34.6636,-74.0043 34.6636,-114.681 0,-41.001 -11.5005,-79.4914 -34.6636,-115.167l67.9908 -66.4925 -56.6725 -58.1708 -67.8289 68.497c-34.1574,-23.8312 -72.83,-35.6557 -115.836,-35.6557 -42.6613,0 -81.1719,11.8245 -115.674,35.6557l-67.8289 -68.497 -56.1664 58.1708 67.8289 66.4925c-23.1631,35.676 -34.6636,74.1663 -34.6636,115.167 0,40.6771 11.5005,79.0054 34.6636,114.681zm45.01 -114.681c0,-35.1495 12.3307,-65.1562 36.992,-89.8176 24.8436,-24.8436 54.5061,-37.1743 89.3316,-37.1743 34.8458,0 64.6703,12.3307 89.3519,37.1743 24.8233,24.6614 37.154,54.668 37.154,89.8176 0,34.8458 -12.3307,64.6703 -36.8301,89.3316 -24.6614,24.8436 -54.5061,37.1743 -89.6758,37.1743 -34.8256,0 -64.488,-12.3307 -89.3316,-37.1743 -24.6614,-24.6614 -36.992,-54.4858 -36.992,-89.3316z"
     id="path569" /></glyph>
   <glyph
   unicode="£"
   horiz-adv-x="556"
   id="glyph571"><path
     d="M193.343 395.007l153.82 0 0 -72.1821 -138.654 0c6.15522,-14.3149 9.33406,-28.6501 9.33406,-42.9853 0,-28.3464 -6.84363,-58.3328 -20.3487,-89.8378 -13.4848,-31.667 -35.6557,-63.8401 -66.6545,-96.6612 25.6535,7.16759 49.1607,10.6501 70.3193,10.6501 27.0101,0 57.5027,-3.98874 91.3361,-12.1485 56.0044,-13.3431 93.8468,-20.0045 113.831,-20.0045 24.0134,0 55.3362,8.98986 93.6848,27.334l28.3261 -80.6657c-30.0067,-12.6749 -53.1697,-20.9966 -69.6714,-24.8436 -16.3397,-3.98874 -32.6591,-5.83126 -48.9988,-5.83126 -13.667,0 -27.496,1.33633 -41.5072,3.82676 -8.82788,1.68054 -29.8245,7.67377 -63.1517,17.838 -33.5095,10.3464 -55.0122,16.3397 -64.8323,18.3442 -15.1653,2.65241 -30.5129,3.82676 -45.8402,3.82676 -23.5073,0 -48.4926,-4.00899 -74.9965,-12.1687 -26.5039,-8.15971 -50.6793,-19.1743 -72.506,-33.1653l-33.6715 84.4925c31.343,17.1698 57.8469,41.8312 79.6736,74.0043 21.8267,32.0112 32.6591,71.1697 32.6591,117.334 0,19.8425 -2.83464,40.0089 -8.32169,60.6613l-95.6691 0 0 72.1821 75.1584 0c-10.6704,36.4859 -17.4938,63.1517 -20.4904,79.8356 -2.99662,16.8256 -4.33295,33.1653 -4.33295,49.1607 0,67.6669 25.0056,120.492 75.1584,158.659 40.3329,30.1687 89.1697,45.334 146.51,45.334 58.8188,0 107.494,-16.1574 145.66,-48.4926 38.3284,-32.4971 61.8356,-78.0133 70.6635,-136.508l-87.4891 -13.1608c-4.83913,38.9965 -19.4983,69.8334 -43.6737,92.1663 -24.3374,22.4949 -53.3317,33.8334 -87.1652,33.8334 -36.1619,0 -66.1686,-11.6625 -89.9998,-35.0078 -23.9932,-23.325 -35.9999,-51.3272 -35.9999,-84.1685 0,-36.1619 9.33406,-83.3181 27.8402,-141.651z"
     id="path573" /></glyph>
   <glyph
   unicode="¢"
   horiz-adv-x="556"
   id="glyph575"><path
     d="M363.34 436.494l-108.506 -373.99c10.8324,-2.99662 20.6726,-4.33295 29.8245,-4.33295 33.8334,0 63.01,11.5005 87.6713,34.6636 24.4994,23.0011 39.6647,55.4982 45.172,97.1674l87.3271 -9.84025c-10.6704,-60.1551 -36.1619,-107.494 -76.3328,-141.995 -40.1709,-34.6636 -87.6713,-51.8334 -142.339,-51.8334 -15.9955,0 -32.6591,2.32845 -50.3148,6.84363l-57.6849 -192.836 -54.6478 15.6513 56.1664 194.335c-37.3362,17.838 -68.0111,47.6827 -91.8423,89.5139 -23.6692,41.8312 -35.676,94.1505 -35.676,156.999 0,57.9886 9.67827,107.656 28.6704,149.163 19.0123,41.5072 47.5005,72.668 85.5049,93.5026 37.8424,20.8346 76.4948,31.3228 115.836,31.3228 11.8245,0 28.0022,-1.33633 48.8368,-3.98874l55.154 188.989 53.8379 -15.6513 -54.668 -189.01c32.1732,-13.991 56.8345,-32.6591 74.1663,-56.3283 17.1698,-23.6692 29.3385,-53.1697 36.1619,-88.6635l-85.4846 -13.1811c-8.50392,36.5061 -24.1754,64.3463 -46.8323,83.5004zm-51.8334 22.5151c-10.3464,0.992124 -18.5061,1.49831 -24.3374,1.49831 -26.6659,0 -51.6714,-7.51179 -74.9965,-22.3329 -23.3453,-14.6794 -40.6771,-37.6805 -52.3396,-68.8412 -11.5005,-30.9988 -17.3318,-67.1607 -17.3318,-108.162 0,-42.8435 5.32507,-79.1674 15.6715,-108.83 10.4882,-29.6827 25.3295,-51.5094 44.5038,-65.8446l108.83 372.512z"
     id="path577" /></glyph>
   <glyph
   unicode="¡"
   horiz-adv-x="333"
   id="glyph579"><path
     d="M218.328 518.496l0 -100.002 -101.156 0 0 100.002 101.156 0zm-23.0011 -178.157l26.8481 -378.829 0 -158.841 -108.85 0 0 158.841 25.3498 378.829 56.6523 0z"
     id="path581" /></glyph>
   <glyph
   unicode=" "
   horiz-adv-x="277"
   id="glyph583" />
   <glyph
   unicode="¿"
   horiz-adv-x="610"
   id="glyph585"><path
     d="M357.833 518.496l0 -100.002 -100.002 0 0 100.002 100.002 0zm-5.83126 -176.153c0.323959,-11.1766 0.506186,-19.3363 0.506186,-25.0056 0,-35.8379 -4.83913,-66.1686 -14.6794,-91.3361 -7.16759,-18.8301 -18.6681,-37.8424 -34.6636,-56.9965 -11.6625,-14.0112 -32.6591,-34.3396 -63.172,-61.1675 -30.4926,-26.6659 -50.1529,-48.0066 -59.163,-63.8401 -8.82788,-15.9955 -13.3228,-33.4892 -13.3228,-52.3396 0,-34.4814 13.3228,-64.65 39.9887,-90.3238 26.6659,-25.6737 59.5072,-38.5106 98.1798,-38.5106 37.154,0 68.3148,11.6828 93.4824,35.1698 25.1675,23.3453 41.8514,59.8311 49.505,109.336l89.8378 -10.3262c-7.99773,-66.0066 -32.1732,-117.01 -72.506,-152.828 -40.1709,-35.676 -93.1584,-53.6759 -158.821,-53.6759 -70.3395,0 -126.344,18.9921 -167.831,57.1585 -41.5072,38.0044 -62.1798,84.1685 -62.1798,138.168 0,31.505 7.16759,60.3373 21.6647,86.497 14.4972,26.0179 43.1675,57.8469 85.6668,95.6691 29.0146,25.6737 48.0066,44.5038 56.6725,56.6725 8.82788,12.0067 15.3273,25.8357 19.3363,41.5072 3.98874,15.4893 6.49942,41.001 7.00561,76.1708l84.4925 0z"
     id="path587" /></glyph>
   <glyph
   unicode="¾"
   horiz-adv-x="833"
   id="glyph589"><path
     d="M123.003 -27.8402l537.67 755.836 76.6567 0 -537.67 -755.836 -76.6567 0zm-106.846 481.504l71.1697 7.32957c6.49942,-19.6602 15.0033,-33.0033 25.5118,-40.1506 13.991,-9.67827 30.4926,-14.5174 49.8289,-14.5174 23.0011,0 41.6692,6.33744 55.6602,19.0123 14.0112,12.6546 20.9966,28.0022 20.9966,45.8199 0,16.3397 -5.99324,29.3385 -17.6558,39.1788 -11.6625,9.65802 -31.1608,14.4972 -58.4948,14.4972 -16.3397,-0.830144 -25.8357,-1.33633 -28.3464,-1.33633l10.6704 53.6759c26.3419,-0.344206 45.6782,4.33295 57.8266,14.1529 12.1687,9.67827 18.3442,21.6647 18.3442,35.676 0,12.0067 -4.83913,22.3329 -14.6591,30.6546 -9.67827,8.50392 -24.1754,12.6749 -43.5117,12.6749 -18.1619,0 -32.3351,-3.5028 -42.6613,-10.6704 -10.1642,-7.16759 -19.1743,-20.1664 -26.6659,-38.9965l-69.8334 11.1766c13.505,34.5016 30.3306,58.6568 50.6591,72.3238 20.3284,13.667 50.0111,20.5106 89.0077,20.5106 46.9943,0 80.9897,-8.84812 102.33,-26.1799 21.3408,-17.4938 31.9909,-39.1585 31.9909,-65.1562 0,-18 -5.83126,-33.8334 -17.3318,-47.8447 -11.5005,-13.991 -28.1642,-24.1552 -49.9909,-30.3306 28.9943,-7.16759 50.3351,-18.9921 64.0021,-35.3318 13.667,-16.5017 20.4904,-35.8379 20.4904,-58.0089 0,-30.1484 -12.9988,-56.4903 -38.6523,-78.9852 -25.6737,-22.4949 -62.3418,-33.6715 -109.842,-33.6715 -45.496,0 -80.3418,8.98986 -104.497,26.9898 -24.1754,18.1822 -39.5027,44.0179 -46.3464,77.5071zm681.67 -468.829l0 75.1584 -186.661 0 0 60.1753 197.331 231.327 59.9931 0 0 -238.656 50.8413 0 0 -52.8458 -50.8413 0 0 -75.1584 -70.6635 0zm0 128.004l0 128.328 -111.827 -128.328 111.827 0z"
     id="path591" /></glyph>
   <glyph
   unicode="½"
   horiz-adv-x="833"
   id="glyph593"><path
     d="M111.341 -27.8402l537.65 755.836 76.677 0 -537.67 -755.836 -76.6567 0zm50.3351 385.673l0 270.668c-33.1855,-26.5039 -69.6714,-44.8278 -109.518,-55.3362l0 60.1753c20.3487,6.49942 42.6816,18.3239 67.5049,35.6557 24.6614,17.1698 44.6658,35.8379 60.0134,55.6804l52.8255 0 0 -366.843 -70.8255 0zm350.483 -372.998c2.00449,18.3239 9.84025,36.6681 23.5073,55.1742 20.1664,28.3261 53.6759,59.4869 100.508,93.3204 46.9943,33.8334 74.8345,55.8424 83.5004,65.8446 12.1687,13.3228 18.1619,26.9898 18.1619,41.001 0,15.6513 -5.66928,28.4881 -16.8459,38.3284 -11.3183,10.0022 -28.1642,15.0033 -50.6591,15.0033 -21.3408,0 -37.4982,-3.84701 -48.0066,-11.5005 -10.6501,-7.67377 -19.316,-22.1709 -26.1597,-43.6737l-73.6601 7.32957c9.33406,36.3441 25.8357,63.172 49.3227,80.3418 23.3453,16.9876 56.6725,25.4915 100.002,25.4915 49.1607,0 85.1607,-9.49604 108.162,-28.6704 23.0011,-19.316 34.5016,-42.6613 34.5016,-70.3193 0,-27.334 -9.65802,-53.3317 -28.8323,-77.6691 -14.6591,-18.3442 -47.8244,-46.3464 -99.6578,-84.0066 -27.334,-19.8222 -46.6703,-35.4937 -58.0089,-46.8323l188.342 0 0 -59.163 -304.177 0z"
     id="path595" /></glyph>
   <glyph
   unicode="¼"
   horiz-adv-x="833"
   id="glyph597"><path
     d="M123.003 -27.8402l538.156 755.836 76.1708 0 -537.67 -755.836 -76.6567 0zm38.6726 385.673l0 270.668c-33.1855,-26.5039 -69.6714,-44.8278 -109.518,-55.3362l0 60.1753c20.3487,6.49942 42.6816,18.3239 67.5049,35.6557 24.6614,17.1698 44.6658,35.8379 60.0134,55.6804l52.8255 0 0 -366.843 -70.8255 0zm536.496 -372.998l0 75.1584 -187.005 0 0 60.1753 197.838 231.327 59.4869 0 0 -238.656 50.8413 0 0 -52.8458 -50.8413 0 0 -75.1584 -70.3193 0zm0 128.004l0 128.328 -112.171 -128.328 112.171 0z"
     id="path599" /></glyph>
   <glyph
   unicode="»"
   horiz-adv-x="556"
   id="glyph601"><path
     d="M386.159 257.831l-127.316 222.661 72.1618 0 155.824 -222.661 -155.824 -222.661 -71.6759 0 126.83 222.661zm-188.827 0l-128.996 222.661 73.8221 0 153.172 -222.661 -153.172 -222.661 -73.8221 0 128.996 222.661z"
     id="path603" /></glyph>
   <glyph
   unicode="º"
   horiz-adv-x="365"
   id="glyph605"><path
     d="M182.166 727.996c47.1765,0 85.6668,-16.1574 115.491,-48.8368 29.6827,-32.4971 44.6861,-77.4869 44.6861,-134.666 0,-56.9965 -15.0033,-101.824 -45.01,-134.321 -29.8245,-32.4971 -68.1731,-48.8368 -114.661,-48.8368 -47.1765,0 -85.8288,15.9955 -115.836,47.8244 -29.8447,31.8492 -44.8278,76.3328 -44.8278,133.35 0,58.4948 14.8211,104.153 44.6658,136.65 29.8245,32.6793 68.3351,48.8368 115.491,48.8368zm0 -64.8323c-26.3419,0 -47.6624,-9.33406 -63.8401,-27.8402 -15.9955,-18.6479 -24.1552,-48.8165 -24.1552,-90.8299 0,-41.001 8.32169,-71.1697 24.6614,-90.1618 16.5017,-18.9921 37.4982,-28.5084 63.3339,-28.5084 25.9977,0 47.1765,9.51629 63.4959,28.5084 16.1777,18.9921 24.3374,49.8289 24.3374,92.5105 0,39.8267 -8.15971,68.983 -24.6614,87.9953 -16.3397,18.8301 -37.4982,28.3261 -63.172,28.3261z"
     id="path607" /></glyph>
   <glyph
   unicode="¹"
   horiz-adv-x="333"
   id="glyph609"><path
     d="M161.676 357.833l0 270.668c-33.1855,-26.5039 -69.6714,-44.8278 -109.518,-55.3362l0 60.1753c20.3487,6.49942 42.6816,18.3239 67.5049,35.6557 24.6614,17.1698 44.6658,35.8379 60.0134,55.6804l52.8255 0 0 -366.843 -70.8255 0z"
     id="path611" /></glyph>
   <glyph
   unicode="¸"
   horiz-adv-x="333"
   id="glyph613"><path
     d="M105.509 -75.1584l25.3295 86.335 65.5004 0 -16.1777 -52.1776c27.6782,-3.34082 48.5128,-11.8245 62.5038,-25.6737 14.0112,-13.829 20.9966,-29.1563 20.9966,-46.1641 0,-24.3374 -11.6625,-46.0021 -35.1698,-64.6703 -23.487,-18.6479 -58.6568,-27.9819 -105.995,-27.9819 -26.6659,0 -49.9909,1.82227 -70.3395,5.83126l5.5073 57.1585c20.8346,-1.33633 36.1619,-2.00449 45.8402,-2.00449 30.6546,0 52.1574,4.17097 64.488,12.6749 9.33406,6.49942 14.1732,14.4972 14.1732,23.9932 0,5.83126 -1.84252,10.9944 -5.66928,15.5095 -3.66478,4.65691 -10.6704,8.50392 -20.6726,11.8245 -10.1642,3.17885 -26.9898,5.00111 -50.3148,5.34532z"
     id="path615" /></glyph>
   <glyph
   unicode="·"
   horiz-adv-x="277"
   id="glyph617"><path
     d="M90.3238 302.173l0 100.164 100.184 0 0 -100.164 -100.184 0z"
     id="path619" /></glyph>
   <glyph
   unicode="¶"
   horiz-adv-x="537"
   id="glyph621"><path
     d="M197.838 -198.668l0 510.174c-61.0055,3.32058 -109.012,23.0011 -144.344,59.325 -35.3318,36.3441 -52.9875,82.6702 -52.9875,138.999 0,62.8278 19.6602,112.839 58.8188,150.013 39.1788,37.316 96.6814,55.9841 172.184,55.9841l308.996 0 0 -84.4925 -70.3395 0 0 -830.003 -82.9942 0 0 830.003 -108.83 0 0 -830.003 -80.5038 0z"
     id="path623" /></glyph>
   <glyph
   unicode="µ"
   horiz-adv-x="576"
   id="glyph625"><path
     d="M496.993 518.496l0 -518.496 -78.4993 0 0 61.4914c-16.9876,-25.9977 -33.6512,-43.9977 -50.3351,-53.6557 -22.8188,-13.3431 -49.3227,-20.0045 -79.6534,-20.0045 -27.0101,0 -50.8413,5.34532 -71.6759,15.9955 -15.6715,8.17996 -32.8211,24.3374 -51.8334,48.3306l0 -250.825 -86.821 0 0 717.164 86.821 0 0 -219.664c0,-79.8356 4.33295,-131.507 12.6749,-154.994 8.50392,-23.6692 22.3329,-42.3374 41.325,-56.0044 19.0123,-13.667 41.001,-20.4904 65.6624,-20.4904 26.0179,0 49.343,7.14734 69.8334,21.4825 20.5106,14.3352 35.0078,32.8413 43.5117,55.4982 8.32169,22.5151 12.6546,73.6804 12.6546,153.01l0 221.163 86.335 0z"
     id="path627" /></glyph>
   <glyph
   unicode="´"
   horiz-adv-x="333"
   id="glyph629"><path
     d="M108.324 583.004l65.0145 136.67 115.167 0 -107.332 -136.67 -72.8502 0z"
     id="path631" /></glyph>
   <glyph
   unicode="³"
   horiz-adv-x="333"
   id="glyph633"><path
     d="M16.1574 453.664l71.1697 7.32957c6.49942,-19.6602 15.0033,-33.0033 25.5118,-40.1506 13.991,-9.67827 30.4926,-14.5174 49.8289,-14.5174 23.0011,0 41.6692,6.33744 55.6602,19.0123 14.0112,12.6546 20.9966,28.0022 20.9966,45.8199 0,16.3397 -5.99324,29.3385 -17.6558,39.1788 -11.6625,9.65802 -31.667,14.4972 -59.9931,14.4972 -4.00899,0 -9.33406,-0.323959 -16.1777,-0.830144 -4.49493,-0.344206 -8.15971,-0.506186 -10.6704,-0.506186l10.6704 53.6759c26.3419,-0.344206 45.6782,4.33295 57.8266,14.1529 12.1687,9.67827 18.3442,21.6647 18.3442,35.676 0,12.0067 -4.83913,22.3329 -14.6591,30.6546 -9.67827,8.50392 -24.1754,12.6749 -43.5117,12.6749 -18.1619,0 -32.3351,-3.5028 -42.6613,-10.6704 -10.1642,-7.16759 -19.1743,-20.1664 -26.6659,-38.9965l-69.8334 11.1766c13.505,34.5016 30.3306,58.6568 50.6591,72.3238 20.3284,13.667 50.0111,20.5106 89.0077,20.5106 46.9943,0 80.9897,-8.84812 102.33,-26.1799 21.3408,-17.4938 31.9909,-39.1585 31.9909,-65.1562 0,-18 -5.83126,-33.8334 -17.3318,-47.8447 -11.5005,-13.991 -28.1642,-24.1552 -49.9909,-30.3306 28.9943,-7.16759 50.3351,-18.9921 64.0021,-35.3318 13.667,-16.5017 20.4904,-35.8379 20.4904,-58.0089 0,-30.1484 -12.9988,-56.4903 -38.6523,-78.9852 -25.6737,-22.4949 -62.3418,-33.6715 -109.842,-33.6715 -45.496,0 -80.3418,8.98986 -104.497,26.9898 -24.1754,18.1822 -39.5027,44.0179 -46.3464,77.5071z"
     id="path635" /></glyph>
   <glyph
   unicode="²"
   horiz-adv-x="333"
   id="glyph637"><path
     d="M12.1687 357.833c2.00449,18.6681 9.65802,37.1743 23.0011,55.6602 20.4904,28.0022 54.1619,59.001 100.994,93.1786 46.9943,33.9954 74.8345,55.8221 83.5004,65.6624 12.1687,13.3228 18.1619,26.9898 18.1619,41.001 0,15.4893 -5.66928,28.5084 -17.1496,38.4904 -11.3386,10.1845 -28.1844,15.1653 -50.3351,15.1653 -21.3408,0 -37.4982,-3.82676 -48.0066,-11.5005 -10.6704,-7.65353 -19.3363,-22.3329 -26.1597,-44.1596l-73.6804 7.83575c9.33406,36.1619 25.8357,62.6658 48.9988,79.8356 23.3453,17.0078 56.8345,25.6737 100.346,25.6737 49.1607,0 85.1607,-9.67827 108.162,-28.8323 23.0011,-19.1743 34.5016,-42.6816 34.5016,-70.3395 0,-27.334 -9.67827,-53.1697 -28.8323,-77.6691 -14.6794,-18.1619 -48.0066,-46.0021 -100.164,-83.5004 -27.0101,-19.8425 -46.1641,-35.676 -57.5027,-47.3385l188.321 0 0 -59.163 -304.157 0z"
     id="path639" /></glyph>
   <glyph
   unicode="±"
   horiz-adv-x="548"
   id="glyph641"><path
     d="M232.825 126.992l0 196.683 -194.659 0 0 81.6579 194.659 0 0 194.841 83.1764 0 0 -194.841 194.659 0 0 -81.6579 -194.659 0 0 -196.683 -83.1764 0zm277.835 -126.992l-472.494 0 0 82.0021 472.494 0 0 -82.0021z"
     id="path643" /></glyph>
   <glyph
   unicode="°"
   horiz-adv-x="399"
   id="glyph645"><path
     d="M62.5038 592.824c0,37.3362 13.3228,69.3474 39.8267,95.6691 26.5039,26.3419 58.3328,39.5027 95.5071,39.5027 37.6602,0 69.6714,-13.1608 96.155,-39.5027 26.3419,-26.3217 39.5027,-58.3328 39.5027,-95.6691 0,-37.4982 -13.3228,-69.4892 -39.8267,-95.993 -26.5039,-26.5039 -58.4948,-39.8267 -95.8311,-39.8267 -37.1743,0 -69.0032,13.1608 -95.5071,39.5027 -26.5039,26.4836 -39.8267,58.4948 -39.8267,96.317zm53.1697 0c0,-22.8188 8.15971,-42.3171 24.1552,-58.3328 16.1777,-16.1574 35.676,-24.1552 58.3328,-24.1552 22.5151,0 41.8312,7.99773 58.0089,24.1552 15.9955,16.0157 24.1552,35.514 24.1552,58.3328 0,22.6771 -8.15971,42.1754 -24.1552,58.3328 -16.1777,16.0157 -35.4937,24.1754 -58.0089,24.1754 -22.6569,0 -42.1551,-8.15971 -58.3328,-24.1754 -15.9955,-16.1574 -24.1552,-35.6557 -24.1552,-58.3328z"
     id="path647" /></glyph>
   <glyph
   unicode="Ï"
   horiz-adv-x="277"
   id="glyph649"><path
     d="M93.3406 0l0 715.827 94.6567 0 0 -715.827 -94.6567 0zm-91.3361 759.825l0 100.002 91.8221 0 0 -100.002 -91.8221 0zm182.004 0l0 100.002 91.8221 0 0 -100.002 -91.8221 0z"
     id="path651" /></glyph>
   <glyph
   unicode="Î"
   horiz-adv-x="277"
   id="glyph653"><path
     d="M93.3406 0l0 715.827 94.6567 0 0 -715.827 -94.6567 0zm46.8323 842.839l-55.1742 -83.0144 -100.67 0 105.509 136.67 93.8266 0 109.842 -136.67 -99.6781 0 -53.6557 83.0144z"
     id="path655" /></glyph>
   <glyph
   unicode="Í"
   horiz-adv-x="277"
   id="glyph657"><path
     d="M93.3406 0l0 715.827 94.6567 0 0 -715.827 -94.6567 0zm-24.4994 759.825l64.9942 136.67 115.167 0 -107.332 -136.67 -72.83 0z"
     id="path659" /></glyph>
   <glyph
   unicode="Ì"
   horiz-adv-x="277"
   id="glyph661"><path
     d="M93.3406 0l0 715.827 94.6567 0 0 -715.827 -94.6567 0zm116.483 759.825l-70.6635 0 -112.819 136.67 117.658 0 65.8244 -136.67z"
     id="path663" /></glyph>
   <glyph
   unicode="Ë"
   horiz-adv-x="666"
   id="glyph665"><path
     d="M79.1674 0l0 715.827 517.504 0 0 -84.4925 -422.847 0 0 -219.178 395.999 0 0 -83.9863 -395.999 0 0 -243.678 439.511 0 0 -84.4925 -534.168 0zm128.328 759.825l0 100.002 91.8423 0 0 -100.002 -91.8423 0zm182.004 0l0 100.002 91.8423 0 0 -100.002 -91.8423 0z"
     id="path667" /></glyph>
   <glyph
   unicode="Ê"
   horiz-adv-x="666"
   id="glyph669"><path
     d="M79.1674 0l0 715.827 517.504 0 0 -84.4925 -422.847 0 0 -219.178 395.999 0 0 -83.9863 -395.999 0 0 -243.678 439.511 0 0 -84.4925 -534.168 0zm265.99 842.839l-55.154 -83.0144 -100.67 0 105.509 136.67 93.8266 0 109.822 -136.67 -99.6578 0 -53.6759 83.0144z"
     id="path671" /></glyph>
   <glyph
   unicode="É"
   horiz-adv-x="666"
   id="glyph673"><path
     d="M79.1674 0l0 715.827 517.504 0 0 -84.4925 -422.847 0 0 -219.178 395.999 0 0 -83.9863 -395.999 0 0 -243.678 439.511 0 0 -84.4925 -534.168 0zm195.165 759.825l64.9942 136.67 115.167 0 -107.332 -136.67 -72.83 0z"
     id="path675" /></glyph>
   <glyph
   unicode="È"
   horiz-adv-x="666"
   id="glyph677"><path
     d="M79.1674 0l0 715.827 517.504 0 0 -84.4925 -422.847 0 0 -219.178 395.999 0 0 -83.9863 -395.999 0 0 -243.678 439.511 0 0 -84.4925 -534.168 0zm335.824 759.825l-70.6635 0 -112.819 136.67 117.658 0 65.8244 -136.67z"
     id="path679" /></glyph>
   <glyph
   unicode="Ç"
   horiz-adv-x="722"
   id="glyph681"><path
     d="M587.843 251.007l94.8187 -24.0134c-19.8222,-77.6691 -55.6602,-136.994 -107.17,-177.995 -51.6512,-40.8391 -114.661,-61.1675 -189.334,-61.1675 -77.1629,0 -139.829,15.6715 -188.159,46.9943 -48.3306,31.505 -85.1607,77.001 -110.328,136.508 -25.1675,59.6692 -37.8424,123.671 -37.8424,192.006 0,74.4903 14.1732,139.485 42.6613,195.003 28.5084,55.4982 69.0032,97.6533 121.667,126.486 52.5016,28.8323 110.348,43.1675 173.5,43.1675 71.6759,0 131.851,-18.1619 180.668,-54.668 48.8368,-36.4859 82.8322,-87.6713 102.007,-153.82l-93.1584 -22.0089c-16.6636,52.1574 -40.6771,89.9998 -72.344,113.831 -31.505,23.8312 -71.1697,35.676 -119.156,35.676 -55.0122,0 -100.832,-13.1811 -137.844,-39.5027 -36.992,-26.5039 -62.9897,-61.8356 -77.8311,-106.339 -15.0033,-44.3216 -22.4949,-90.1618 -22.4949,-137.338 0,-60.9852 8.82788,-113.993 26.5039,-159.489 17.8177,-45.334 45.334,-79.3294 82.8322,-101.845 37.4982,-22.4949 77.9931,-33.6512 121.667,-33.6512 52.9875,0 97.8356,15.3273 134.666,45.8199 36.8301,30.6748 61.6534,76.1708 74.6725,136.346zm-285.003 -326.166l25.3295 86.335 65.5004 0 -16.1777 -52.1776c27.6782,-3.34082 48.5128,-11.8245 62.5038,-25.6737 14.0112,-13.829 20.9966,-29.1563 20.9966,-46.1641 0,-24.3374 -11.6625,-46.0021 -35.1698,-64.6703 -23.487,-18.6479 -58.6568,-27.9819 -105.995,-27.9819 -26.6659,0 -49.9909,1.82227 -70.3193,5.83126l5.48705 57.1585c20.8346,-1.33633 36.1619,-2.00449 45.8402,-2.00449 30.6546,0 52.1574,4.17097 64.488,12.6749 9.33406,6.49942 14.1732,14.4972 14.1732,23.9932 0,5.83126 -1.82227,10.9944 -5.66928,15.5095 -3.66478,4.65691 -10.6704,8.50392 -20.6524,11.8245 -10.1845,3.17885 -27.0101,5.00111 -50.3351,5.34532z"
     id="path683" /></glyph>
   <glyph
   unicode="Æ"
   horiz-adv-x="1000"
   id="glyph685"><path
     d="M0.506186 0l344.166 715.827 587.499 0 0 -84.4925 -359.837 0 0 -220.17 334.325 0 0 -84.0066 -334.325 0 0 -242.665 372.998 0 0 -84.4925 -468.323 0 0 206.503 -276.337 0 -97.6736 -206.503 -102.492 0zm240.155 290.51l236.348 0 0 340.825 -70.6838 0 -165.664 -340.825z"
     id="path687" /></glyph>
   <glyph
   unicode="Å"
   horiz-adv-x="666"
   id="glyph689"><path
     d="M-1.49831 0l275.001 715.827 102.007 0 293 -715.827 -108 0 -83.5004 216.83 -299.338 0 -78.4993 -216.83 -100.67 0zm206.503 293.993l242.827 0 -74.8345 198.182c-22.6569,60.1551 -39.6647,109.66 -50.6591,148.495 -9.17208,-46.0021 -22.0089,-91.4981 -38.6726,-136.832l-78.6612 -209.844zm29.9864 487.841c0,23.8312 8.6659,44.3419 26.0179,61.4914 17.4938,17.3318 37.9842,25.8357 61.8154,25.8357 24.0134,0 44.848,-8.6659 62.0179,-25.9977 17.3318,-17.4938 25.8155,-38.4904 25.8155,-63.3339 0,-25.0056 -8.48367,-46.1641 -25.8155,-63.4959 -17.1698,-17.1698 -37.8424,-25.8357 -61.5117,-25.8357 -24.4994,0 -45.334,8.6659 -62.5038,26.1597 -17.3318,17.352 -25.8357,39.1788 -25.8357,65.1765zm37.0123 -0.506186c0,-15.3273 5.16309,-28.1642 15.4893,-38.4904 10.1642,-10.5084 22.3329,-15.6715 36.3441,-15.6715 13.991,0 26.1597,5.16309 36.3239,15.6715 10.3464,10.3262 15.3475,22.8391 15.3475,37.4982 0,14.6591 -5.00111,27.172 -15.0033,37.6602 -10.1642,10.3464 -22.3329,15.5095 -36.6681,15.5095 -14.0112,0 -26.1799,-5.00111 -36.3441,-15.3475 -10.3262,-10.1642 -15.4893,-22.4949 -15.4893,-36.8301z"
     id="path691" /></glyph>
   <glyph
   unicode="Ä"
   horiz-adv-x="666"
   id="glyph693"><path
     d="M-1.49831 0l275.001 715.827 102.007 0 293 -715.827 -108 0 -83.5004 216.83 -299.338 0 -78.4993 -216.83 -100.67 0zm206.503 293.993l242.827 0 -74.8345 198.182c-22.6569,60.1551 -39.6647,109.66 -50.6591,148.495 -9.17208,-46.0021 -22.0089,-91.4981 -38.6726,-136.832l-78.6612 -209.844zm-19.8425 465.832l0 100.002 91.8423 0 0 -100.002 -91.8423 0zm182.004 0l0 100.002 91.8423 0 0 -100.002 -91.8423 0z"
     id="path695" /></glyph>
   <glyph
   unicode="Ã"
   horiz-adv-x="666"
   id="glyph697"><path
     d="M-1.49831 0l275.001 715.827 102.007 0 293 -715.827 -108 0 -83.5004 216.83 -299.338 0 -78.4993 -216.83 -100.67 0zm206.503 293.993l242.827 0 -74.8345 198.182c-22.6569,60.1551 -39.6647,109.66 -50.6591,148.495 -9.17208,-46.0021 -22.0089,-91.4981 -38.6726,-136.832l-78.6612 -209.844zm-34.5016 465.67c-0.344206,33.8334 8.82788,61.0055 27.82,81.1719 18.5061,20.1664 42.1754,30.1687 71.1697,30.1687 20.1664,0 47.6827,-8.6659 82.5083,-26.3419 19.3363,-9.82 34.5016,-14.6591 46.0021,-14.6591 10.3262,0 18.3239,2.83464 23.8312,8.50392 5.66928,5.83126 9.49604,16.9876 11.8245,33.9954l63.3339 0c-0.830144,-37.1743 -10.3262,-64.9942 -28.0022,-83.5004 -17.6558,-18.5061 -40.3329,-27.8402 -67.6669,-27.8402 -20.4904,0 -47.5005,9.17208 -80.9897,27.334 -21.8267,11.6625 -37.8424,17.676 -47.8244,17.676 -11.1766,0 -20.0045,-4.00899 -26.8481,-11.8447 -7.16759,-7.83575 -10.6704,-19.3363 -10.3262,-34.6636l-64.8323 0z"
     id="path699" /></glyph>
   <glyph
   unicode="Â"
   horiz-adv-x="666"
   id="glyph701"><path
     d="M-1.49831 0l275.001 715.827 102.007 0 293 -715.827 -108 0 -83.5004 216.83 -299.338 0 -78.4993 -216.83 -100.67 0zm206.503 293.993l242.827 0 -74.8345 198.182c-22.6569,60.1551 -39.6647,109.66 -50.6591,148.495 -9.17208,-46.0021 -22.0089,-91.4981 -38.6726,-136.832l-78.6612 -209.844zm119.318 548.847l-55.154 -83.0144 -100.67 0 105.509 136.67 93.8266 0 109.822 -136.67 -99.6578 0 -53.6759 83.0144z"
     id="path703" /></glyph>
   <glyph
   unicode="Á"
   horiz-adv-x="666"
   id="glyph705"><path
     d="M-1.49831 0l275.001 715.827 102.007 0 293 -715.827 -108 0 -83.5004 216.83 -299.338 0 -78.4993 -216.83 -100.67 0zm206.503 293.993l242.827 0 -74.8345 198.182c-22.6569,60.1551 -39.6647,109.66 -50.6591,148.495 -9.17208,-46.0021 -22.0089,-91.4981 -38.6726,-136.832l-78.6612 -209.844zm59.163 465.832l64.9942 136.67 115.167 0 -107.332 -136.67 -72.83 0z"
     id="path707" /></glyph>
   <glyph
   unicode="À"
   horiz-adv-x="666"
   id="glyph709"><path
     d="M-1.49831 0l275.001 715.827 102.007 0 293 -715.827 -108 0 -83.5004 216.83 -299.338 0 -78.4993 -216.83 -100.67 0zm206.503 293.993l242.827 0 -74.8345 198.182c-22.6569,60.1551 -39.6647,109.66 -50.6591,148.495 -9.17208,-46.0021 -22.0089,-91.4981 -38.6726,-136.832l-78.6612 -209.844zm197.331 465.832l-70.6635 0 -112.839 136.67 117.658 0 65.8446 -136.67z"
     id="path711" /></glyph>
   <glyph
   unicode="ß"
   horiz-adv-x="610"
   id="glyph713"><path
     d="M74.6725 0l0 487.841c0,59.4869 7.32957,105.327 21.8267,137.318 14.4972,32.1732 38.6726,57.3407 72.506,75.5026 33.8334,18.1619 71.8379,27.334 114.155,27.334 56.3486,0 100.67,-13.991 132.843,-42.1551 32.1732,-28.1844 48.3306,-60.8435 48.3306,-97.9975 0,-16.5017 -2.83464,-33.6715 -8.82788,-51.1855 -5.83126,-17.6558 -16.1777,-39.4825 -31.181,-65.6624 -14.9831,-26.3217 -24.4994,-44.5038 -28.3261,-54.668 -3.82676,-10.3262 -5.83126,-19.3363 -5.83126,-27.1518 0,-10.5084 3.5028,-20.6726 10.6704,-30.8368 6.82338,-10.3464 26.5039,-26.1799 59.163,-47.3385 44.1596,-28.9943 73.6601,-52.1574 88.3395,-69.8334 20.8346,-25.0056 31.3228,-54.668 31.3228,-88.8254 0,-45.172 -16.8256,-84.0066 -50.1731,-116.18 -33.3273,-32.3351 -75.9886,-48.3306 -128.166,-48.3306 -40.9808,0 -77.001,10.9944 -107.818,33.0033 -30.9988,21.8267 -53.9999,50.1731 -69.3474,84.6747l75.6646 35.1495c16.1777,-30.3306 32.5174,-51.3272 48.8368,-62.9897 16.1777,-11.6625 33.3475,-17.676 51.1652,-17.676 24.8436,0 46.0021,8.50392 63.5162,25.5118 17.6558,16.8256 26.3217,36.6681 26.3217,59.4869 0,18.3442 -5.16309,33.8334 -15.4893,46.8323 -6.84363,8.50392 -25.1675,22.8391 -54.668,43.0055 -54.1821,37.1743 -87.5094,64.9942 -100.164,83.5004 -13.0191,18.5061 -19.5185,37.6602 -19.5185,57.1787 0,12.6546 2.16647,25.4915 6.49942,38.4904 4.51518,13.1608 15.0033,33.9954 31.8492,62.5038 16.6636,28.6704 27.658,50.1731 33.0033,64.488 5.16309,14.3352 7.65353,27.0101 7.65353,38.1664 0,20.1664 -8.82788,38.0044 -26.5039,53.352 -17.8177,15.4893 -41.487,23.325 -70.9875,23.325 -34.8458,0 -63.3339,-10.8324 -85.5049,-32.3351 -22.1709,-21.5028 -33.1653,-67.9908 -33.1653,-139.667l0 -483.832 -87.9953 0z"
     id="path715" /></glyph>
   <glyph
   unicode="Þ"
   horiz-adv-x="666"
   id="glyph717"><path
     d="M77.1629 0l0 715.827 94.677 0 0 -145.498 175.322 0c47.5005,0 84.0066,-2.32845 109.336,-6.82338 35.1698,-6.17546 64.6703,-17.514 88.5015,-34.0157 23.6692,-16.3194 42.6613,-39.4825 56.9965,-68.983 14.3352,-29.6827 21.5028,-62.1798 21.5028,-97.6736 0,-60.6613 -19.3363,-112.009 -58.0089,-154.164 -38.8143,-41.9932 -108.83,-63.172 -209.986,-63.172l-183.664 0 0 -145.498 -94.677 0zm94.677 229.99l185.163 0c61.1675,0 104.659,11.3386 130.333,34.1777 25.6737,22.8391 38.4904,54.668 38.4904,95.6691 0,29.6625 -7.49155,55.154 -22.3329,76.6567 -14.9831,21.5028 -34.8256,35.676 -59.6692,42.4993 -15.9955,4.51518 -45.496,6.84363 -88.8254,6.84363l-183.158 0 0 -255.846z"
     id="path719" /></glyph>
   <glyph
   unicode="Ý"
   horiz-adv-x="666"
   id="glyph721"><path
     d="M278.827 0l0 303.165 -275.831 412.663 115.167 0 141.165 -215.817c25.9977,-40.3531 50.1731,-80.686 72.668,-121.181 21.5028,37.4982 47.5005,79.6736 78.1753,126.506l138.654 210.492 110.348 0 -285.671 -412.663 0 -303.165 -94.677 0zm-7.83575 759.825l65.0145 136.67 115.167 0 -107.332 -136.67 -72.8502 0z"
     id="path723" /></glyph>
   <glyph
   unicode="Ü"
   horiz-adv-x="722"
   id="glyph725"><path
     d="M546.842 715.827l94.8187 0 0 -413.655c0,-71.8379 -8.15971,-128.996 -24.4994,-171.334 -16.3194,-42.3374 -45.6579,-76.677 -88.1573,-103.181 -42.4993,-26.6659 -98.1798,-39.8267 -167.163,-39.8267 -66.9987,0 -122.011,11.5005 -164.51,34.6636 -42.6613,23.0011 -73.1742,56.5106 -91.3361,100.346 -18.3239,43.8357 -27.334,103.485 -27.334,179.331l0 413.655 94.677 0 0 -413.169c0,-62.1596 5.83126,-108 17.3318,-137.318 11.5005,-29.5005 31.505,-52.1776 59.4869,-68.1731 28.1844,-15.9955 62.686,-23.9932 103.343,-23.9932 69.6714,0 119.338,15.8335 149.001,47.5005 29.5005,31.4847 44.3419,92.1663 44.3419,181.984l0 413.169zm-325.174 43.9977l0 100.002 91.8221 0 0 -100.002 -91.8221 0zm182.004 0l0 100.002 91.8221 0 0 -100.002 -91.8221 0z"
     id="path727" /></glyph>
   <glyph
   unicode="Û"
   horiz-adv-x="722"
   id="glyph729"><path
     d="M546.842 715.827l94.8187 0 0 -413.655c0,-71.8379 -8.15971,-128.996 -24.4994,-171.334 -16.3194,-42.3374 -45.6579,-76.677 -88.1573,-103.181 -42.4993,-26.6659 -98.1798,-39.8267 -167.163,-39.8267 -66.9987,0 -122.011,11.5005 -164.51,34.6636 -42.6613,23.0011 -73.1742,56.5106 -91.3361,100.346 -18.3239,43.8357 -27.334,103.485 -27.334,179.331l0 413.655 94.677 0 0 -413.169c0,-62.1596 5.83126,-108 17.3318,-137.318 11.5005,-29.5005 31.505,-52.1776 59.4869,-68.1731 28.1844,-15.9955 62.686,-23.9932 103.343,-23.9932 69.6714,0 119.338,15.8335 149.001,47.5005 29.5005,31.4847 44.3419,92.1663 44.3419,181.984l0 413.169zm-187.511 127.012l-55.1742 -83.0144 -100.65 0 105.489 136.67 93.8468 0 109.822 -136.67 -99.6578 0 -53.6759 83.0144z"
     id="path731" /></glyph>
   <glyph
   unicode="Ú"
   horiz-adv-x="722"
   id="glyph733"><path
     d="M546.842 715.827l94.8187 0 0 -413.655c0,-71.8379 -8.15971,-128.996 -24.4994,-171.334 -16.3194,-42.3374 -45.6579,-76.677 -88.1573,-103.181 -42.4993,-26.6659 -98.1798,-39.8267 -167.163,-39.8267 -66.9987,0 -122.011,11.5005 -164.51,34.6636 -42.6613,23.0011 -73.1742,56.5106 -91.3361,100.346 -18.3239,43.8357 -27.334,103.485 -27.334,179.331l0 413.655 94.677 0 0 -413.169c0,-62.1596 5.83126,-108 17.3318,-137.318 11.5005,-29.5005 31.505,-52.1776 59.4869,-68.1731 28.1844,-15.9955 62.686,-23.9932 103.343,-23.9932 69.6714,0 119.338,15.8335 149.001,47.5005 29.5005,31.4847 44.3419,92.1663 44.3419,181.984l0 413.169zm-247.181 43.9977l65.0145 136.67 115.147 0 -107.332 -136.67 -72.83 0z"
     id="path735" /></glyph>
   <glyph
   unicode="Ù"
   horiz-adv-x="722"
   id="glyph737"><path
     d="M546.842 715.827l94.8187 0 0 -413.655c0,-71.8379 -8.15971,-128.996 -24.4994,-171.334 -16.3194,-42.3374 -45.6579,-76.677 -88.1573,-103.181 -42.4993,-26.6659 -98.1798,-39.8267 -167.163,-39.8267 -66.9987,0 -122.011,11.5005 -164.51,34.6636 -42.6613,23.0011 -73.1742,56.5106 -91.3361,100.346 -18.3239,43.8357 -27.334,103.485 -27.334,179.331l0 413.655 94.677 0 0 -413.169c0,-62.1596 5.83126,-108 17.3318,-137.318 11.5005,-29.5005 31.505,-52.1776 59.4869,-68.1731 28.1844,-15.9955 62.686,-23.9932 103.343,-23.9932 69.6714,0 119.338,15.8335 149.001,47.5005 29.5005,31.4847 44.3419,92.1663 44.3419,181.984l0 413.169zm-129.847 43.9977l-70.6635 0 -112.839 136.67 117.678 0 65.8244 -136.67z"
     id="path739" /></glyph>
   <glyph
   unicode="Ø"
   horiz-adv-x="777"
   id="glyph741"><path
     d="M610.338 650.327l82.0021 91.8423 48.3306 -41.001 -85.8288 -96.6612c27.9819,-41.6692 46.8323,-78.1753 56.6523,-109.336 12.9988,-41.001 19.4983,-87.0032 19.4983,-137.662 0,-73.3362 -14.8211,-138.675 -44.4836,-195.833 -29.6827,-57.3407 -71.1697,-100.67 -124.684,-130.009 -53.6557,-29.1765 -110.49,-43.8357 -170.666,-43.8357 -44.9898,0 -85.6668,6.33744 -122.153,18.9921 -28.0022,9.84025 -60.6815,28.5084 -98.1798,56.1866l-82.0021 -91.8423 -48.3306 41.001 86.0111 96.155c-32.0112,48.5128 -53.3317,89.9998 -64.0021,124.339 -10.6704,34.3396 -16.1777,75.6646 -16.1777,123.833 0,73.4981 14.6794,138.999 43.9977,196.501 29.3385,57.5027 70.3395,100.994 123.347,130.677 52.8255,29.5005 111.665,44.3216 176.497,44.3216 43.6737,0 81.8401,-5.66928 114.499,-17.3318 32.6591,-11.5005 67.9908,-31.667 105.671,-60.3373zm-58.5151 -65.8244c-30.6546,23.9932 -57.4824,40.4948 -80.3215,49.3227 -23.0011,8.6659 -50.0111,13.1811 -80.8277,13.1811 -71.3317,0 -130.171,-24.1754 -176.841,-72.506 -46.5083,-48.3306 -69.8334,-120.492 -69.8334,-216.668 0,-37.6602 3.66478,-71.1697 10.8324,-100.508 5.16309,-21.8267 15.9955,-48.6546 32.6591,-80.4835l364.332 407.662zm40.0089 -50.3351l-362.834 -406.163c25.0056,-20.5106 48.1686,-34.8458 69.3272,-43.0055 27.6782,-10.8324 57.6647,-16.1574 89.8378,-16.1574 71.0077,0 129.503,24.9853 175.829,75.1584 46.1844,50.1731 69.3474,120.492 69.3474,210.998 0,67.6669 -13.8492,127.498 -41.5072,179.169z"
     id="path743" /></glyph>
   <glyph
   unicode="×"
   horiz-adv-x="583"
   id="glyph745"><path
     d="M78.6612 199.66l153.84 153.84 -153.334 153.334 59.5072 59.5072 153.334 -153.172 152.828 152.828 58.6568 -59.163 -152.483 -152.828 153.334 -153.334 -59.5072 -59.5072 -153.334 153.334 -153.84 -153.84 -59.001 59.001z"
     id="path747" /></glyph>
   <glyph
   unicode="Ö"
   horiz-adv-x="777"
   id="glyph749"><path
     d="M48.3306 348.661c0,118.832 31.8289,211.849 95.6691,279.009 63.8401,67.1607 146.166,100.832 247.16,100.832 66.0066,0 125.676,-15.8335 178.663,-47.3385 53.0078,-31.667 93.5026,-75.6646 121.343,-132.155 27.8402,-56.3486 41.6692,-120.513 41.6692,-192.006 0,-72.668 -14.4972,-137.662 -43.8357,-194.841 -29.3385,-57.3205 -70.8255,-100.67 -124.501,-130.171 -53.8379,-29.5005 -111.665,-44.1596 -173.824,-44.1596 -67.5049,0 -127.68,16.1777 -180.668,48.8368 -53.1697,32.4971 -93.3406,77.001 -120.675,133.329 -27.334,56.1664 -41.001,115.836 -41.001,178.663zm97.6736 -1.49831c0,-86.335 23.1631,-154.164 69.4892,-203.831 46.5083,-49.6669 104.679,-74.4903 174.675,-74.4903 71.3317,0 130.009,24.9853 175.991,75.1584 46.0021,50.1731 69.1652,121.343 69.1652,213.509 0,58.1506 -9.98198,108.992 -29.6625,152.483 -19.6602,43.5117 -48.4926,77.1832 -86.335,101.176 -37.9842,23.8312 -80.4835,35.8379 -127.66,35.8379 -67.1607,0 -124.825,-23.0011 -173.176,-69.1652 -48.3306,-46.0021 -72.4858,-123.003 -72.4858,-230.679zm105.995 412.663l0 100.002 91.8423 0 0 -100.002 -91.8423 0zm182.004 0l0 100.002 91.8221 0 0 -100.002 -91.8221 0z"
     id="path751" /></glyph>
   <glyph
   unicode="Õ"
   horiz-adv-x="777"
   id="glyph753"><path
     d="M48.3306 348.661c0,118.832 31.8289,211.849 95.6691,279.009 63.8401,67.1607 146.166,100.832 247.16,100.832 66.0066,0 125.676,-15.8335 178.663,-47.3385 53.0078,-31.667 93.5026,-75.6646 121.343,-132.155 27.8402,-56.3486 41.6692,-120.513 41.6692,-192.006 0,-72.668 -14.4972,-137.662 -43.8357,-194.841 -29.3385,-57.3205 -70.8255,-100.67 -124.501,-130.171 -53.8379,-29.5005 -111.665,-44.1596 -173.824,-44.1596 -67.5049,0 -127.68,16.1777 -180.668,48.8368 -53.1697,32.4971 -93.3406,77.001 -120.675,133.329 -27.334,56.1664 -41.001,115.836 -41.001,178.663zm97.6736 -1.49831c0,-86.335 23.1631,-154.164 69.4892,-203.831 46.5083,-49.6669 104.679,-74.4903 174.675,-74.4903 71.3317,0 130.009,24.9853 175.991,75.1584 46.0021,50.1731 69.1652,121.343 69.1652,213.509 0,58.1506 -9.98198,108.992 -29.6625,152.483 -19.6602,43.5117 -48.4926,77.1832 -86.335,101.176 -37.9842,23.8312 -80.4835,35.8379 -127.66,35.8379 -67.1607,0 -124.825,-23.0011 -173.176,-69.1652 -48.3306,-46.0021 -72.4858,-123.003 -72.4858,-230.679zm81.6579 412.501c-0.323959,33.8334 8.82788,61.0055 27.8402,81.1719 18.5061,20.1664 42.1551,30.1687 71.1697,30.1687 20.1664,0 47.6624,-8.6659 82.488,-26.3419 19.3363,-9.82 34.5016,-14.6591 46.0021,-14.6591 10.3464,0 18.3442,2.83464 23.8312,8.50392 5.66928,5.83126 9.51629,16.9876 11.8447,33.9954l63.3339 0c-0.830144,-37.1743 -10.3464,-64.9942 -28.0022,-83.5004 -17.676,-18.5061 -40.3329,-27.8402 -67.6669,-27.8402 -20.5106,0 -47.5005,9.17208 -81.0099,27.334 -21.8267,11.6625 -37.8222,17.676 -47.8244,17.676 -11.1766,0 -20.0045,-4.00899 -26.8278,-11.8447 -7.16759,-7.83575 -10.6704,-19.3363 -10.3464,-34.6636l-64.8323 0z"
     id="path755" /></glyph>
   <glyph
   unicode="Ô"
   horiz-adv-x="777"
   id="glyph757"><path
     d="M48.3306 348.661c0,118.832 31.8289,211.849 95.6691,279.009 63.8401,67.1607 146.166,100.832 247.16,100.832 66.0066,0 125.676,-15.8335 178.663,-47.3385 53.0078,-31.667 93.5026,-75.6646 121.343,-132.155 27.8402,-56.3486 41.6692,-120.513 41.6692,-192.006 0,-72.668 -14.4972,-137.662 -43.8357,-194.841 -29.3385,-57.3205 -70.8255,-100.67 -124.501,-130.171 -53.8379,-29.5005 -111.665,-44.1596 -173.824,-44.1596 -67.5049,0 -127.68,16.1777 -180.668,48.8368 -53.1697,32.4971 -93.3406,77.001 -120.675,133.329 -27.334,56.1664 -41.001,115.836 -41.001,178.663zm97.6736 -1.49831c0,-86.335 23.1631,-154.164 69.4892,-203.831 46.5083,-49.6669 104.679,-74.4903 174.675,-74.4903 71.3317,0 130.009,24.9853 175.991,75.1584 46.0021,50.1731 69.1652,121.343 69.1652,213.509 0,58.1506 -9.98198,108.992 -29.6625,152.483 -19.6602,43.5117 -48.4926,77.1832 -86.335,101.176 -37.9842,23.8312 -80.4835,35.8379 -127.66,35.8379 -67.1607,0 -124.825,-23.0011 -173.176,-69.1652 -48.3306,-46.0021 -72.4858,-123.003 -72.4858,-230.679zm243.657 495.677l-55.154 -83.0144 -100.67 0 105.489 136.67 93.8468 0 109.822 -136.67 -99.6578 0 -53.6759 83.0144z"
     id="path759" /></glyph>
   <glyph
   unicode="Ó"
   horiz-adv-x="777"
   id="glyph761"><path
     d="M48.3306 348.661c0,118.832 31.8289,211.849 95.6691,279.009 63.8401,67.1607 146.166,100.832 247.16,100.832 66.0066,0 125.676,-15.8335 178.663,-47.3385 53.0078,-31.667 93.5026,-75.6646 121.343,-132.155 27.8402,-56.3486 41.6692,-120.513 41.6692,-192.006 0,-72.668 -14.4972,-137.662 -43.8357,-194.841 -29.3385,-57.3205 -70.8255,-100.67 -124.501,-130.171 -53.8379,-29.5005 -111.665,-44.1596 -173.824,-44.1596 -67.5049,0 -127.68,16.1777 -180.668,48.8368 -53.1697,32.4971 -93.3406,77.001 -120.675,133.329 -27.334,56.1664 -41.001,115.836 -41.001,178.663zm97.6736 -1.49831c0,-86.335 23.1631,-154.164 69.4892,-203.831 46.5083,-49.6669 104.679,-74.4903 174.675,-74.4903 71.3317,0 130.009,24.9853 175.991,75.1584 46.0021,50.1731 69.1652,121.343 69.1652,213.509 0,58.1506 -9.98198,108.992 -29.6625,152.483 -19.6602,43.5117 -48.4926,77.1832 -86.335,101.176 -37.9842,23.8312 -80.4835,35.8379 -127.66,35.8379 -67.1607,0 -124.825,-23.0011 -173.176,-69.1652 -48.3306,-46.0021 -72.4858,-123.003 -72.4858,-230.679zm184.495 412.663l64.9942 136.67 115.167 0 -107.332 -136.67 -72.83 0z"
     id="path763" /></glyph>
   <glyph
   unicode="Ò"
   horiz-adv-x="777"
   id="glyph765"><path
     d="M48.3306 348.661c0,118.832 31.8289,211.849 95.6691,279.009 63.8401,67.1607 146.166,100.832 247.16,100.832 66.0066,0 125.676,-15.8335 178.663,-47.3385 53.0078,-31.667 93.5026,-75.6646 121.343,-132.155 27.8402,-56.3486 41.6692,-120.513 41.6692,-192.006 0,-72.668 -14.4972,-137.662 -43.8357,-194.841 -29.3385,-57.3205 -70.8255,-100.67 -124.501,-130.171 -53.8379,-29.5005 -111.665,-44.1596 -173.824,-44.1596 -67.5049,0 -127.68,16.1777 -180.668,48.8368 -53.1697,32.4971 -93.3406,77.001 -120.675,133.329 -27.334,56.1664 -41.001,115.836 -41.001,178.663zm97.6736 -1.49831c0,-86.335 23.1631,-154.164 69.4892,-203.831 46.5083,-49.6669 104.679,-74.4903 174.675,-74.4903 71.3317,0 130.009,24.9853 175.991,75.1584 46.0021,50.1731 69.1652,121.343 69.1652,213.509 0,58.1506 -9.98198,108.992 -29.6625,152.483 -19.6602,43.5117 -48.4926,77.1832 -86.335,101.176 -37.9842,23.8312 -80.4835,35.8379 -127.66,35.8379 -67.1607,0 -124.825,-23.0011 -173.176,-69.1652 -48.3306,-46.0021 -72.4858,-123.003 -72.4858,-230.679zm301.16 412.663l-70.6635 0 -112.839 136.67 117.678 0 65.8244 -136.67z"
     id="path767" /></glyph>
   <glyph
   unicode="Ñ"
   horiz-adv-x="722"
   id="glyph769"><path
     d="M76.1708 0l0 715.827 97.1674 0 375.995 -561.987 0 561.987 90.8299 0 0 -715.827 -97.1674 0 -375.995 562.494 0 -562.494 -90.8299 0zm133.835 759.663c-0.344206,33.8334 8.82788,61.0055 27.82,81.1719 18.5061,20.1664 42.1754,30.1687 71.1697,30.1687 20.1664,0 47.6624,-8.6659 82.5083,-26.3419 19.3363,-9.82 34.5016,-14.6591 46.0021,-14.6591 10.3262,0 18.3239,2.83464 23.8312,8.50392 5.66928,5.83126 9.49604,16.9876 11.8245,33.9954l63.3339 0c-0.830144,-37.1743 -10.3262,-64.9942 -28.0022,-83.5004 -17.6558,-18.5061 -40.3329,-27.8402 -67.6669,-27.8402 -20.4904,0 -47.5005,9.17208 -80.9897,27.334 -21.847,11.6625 -37.8424,17.676 -47.8447,17.676 -11.1563,0 -19.9842,-4.00899 -26.8278,-11.8447 -7.16759,-7.83575 -10.6704,-19.3363 -10.3262,-34.6636l-64.8323 0z"
     id="path771" /></glyph>
   <glyph
   unicode="Ð"
   horiz-adv-x="722"
   id="glyph773"><path
     d="M77.1629 0l0 325.66 -78.6612 0 0 64.5083 78.6612 0 0 325.66 246.998 0c55.3362,0 97.6736,-3.5028 127.012,-10.3262 41.001,-9.33406 75.9886,-26.5039 105.003,-51.1652 37.6602,-32.0112 65.9864,-72.668 84.6545,-122.335 18.8301,-49.6669 28.1642,-106.339 28.1642,-170.159 0,-73.0122 -11.6625,-135.678 -34.6636,-188.18 -23.1631,-52.6635 -50.8413,-90.8299 -82.9942,-114.661 -32.3351,-23.6692 -69.3474,-40.6771 -111.341,-50.6591 -23.1631,-5.5073 -57.9886,-8.34194 -104.497,-8.34194l-258.337 0zm94.677 84.4925l152.828 0c47.5005,0 84.6747,4.33295 111.341,13.1811 26.6659,8.82788 47.8244,20.9966 63.4959,36.6681 22.4949,22.3329 39.9887,52.5016 52.6635,90.3238 12.8369,37.6602 19.1743,83.8446 19.1743,138.168 0,56.0044 -6.33744,100.67 -18.8504,134.159 -12.4927,33.6715 -28.8323,60.4993 -48.9988,80.6657 -20.3284,20.1664 -42.6613,34.1777 -67.4847,42.0134 -24.6816,7.83575 -62.6658,11.6625 -113.669,11.6625l-150.499 0 0 -241.167 197.331 0 0 -64.5083 -197.331 0 0 -241.167z"
     id="path775" /></glyph>
   <glyph
   unicode="ï"
   horiz-adv-x="277"
   id="glyph777"><path
     d="M96.6612 0l0 518.496 87.8333 0 0 -518.496 -87.8333 0zm-92.1663 620.158l0 100.002 91.8423 0 0 -100.002 -91.8423 0zm182.004 0l0 100.002 91.8423 0 0 -100.002 -91.8423 0z"
     id="path779" /></glyph>
   <glyph
   unicode="î"
   horiz-adv-x="277"
   id="glyph781"><path
     d="M96.6612 0l0 518.496 87.8333 0 0 -518.496 -87.8333 0zm50.8413 665.999l-55.1742 -82.9942 -100.67 0 105.509 136.67 93.8266 0 109.842 -136.67 -99.6781 0 -53.6557 82.9942z"
     id="path783" /></glyph>
   <glyph
   unicode="í"
   horiz-adv-x="277"
   id="glyph785"><path
     d="M96.6612 0l0 518.496 87.8333 0 0 -518.496 -87.8333 0zm-4.49493 583.004l64.9942 136.67 115.167 0 -107.332 -136.67 -72.83 0z"
     id="path787" /></glyph>
   <glyph
   unicode="ì"
   horiz-adv-x="277"
   id="glyph789"><path
     d="M96.6612 0l0 518.496 87.8333 0 0 -518.496 -87.8333 0zm104.011 583.004l-70.6635 0 -112.839 136.67 117.658 0 65.8446 -136.67z"
     id="path791" /></glyph>
   <glyph
   unicode="ë"
   horiz-adv-x="556"
   id="glyph793"><path
     d="M420.843 167.001l90.8299 -11.1766c-14.3352,-53.1495 -40.8391,-94.3327 -79.5116,-123.651 -38.8346,-29.1765 -88.3193,-43.8357 -148.495,-43.8357 -75.8266,0 -136.002,23.325 -180.324,69.9953 -44.5038,46.6703 -66.6748,112.171 -66.6748,196.501 0,87.3271 22.4949,154.994 67.3227,203.163 45.01,48.1686 103.181,72.344 174.837,72.344 69.3474,0 126,-23.6692 169.835,-70.8457 43.9977,-47.1562 66.0066,-113.669 66.0066,-199.154 0,-5.34532 -0.161979,-13.1811 -0.506186,-23.5073l-386.665 0c3.1586,-56.9965 19.3363,-100.67 48.3306,-130.839 29.0146,-30.3306 65.0145,-45.496 108.344,-45.496 32.1529,0 59.6692,8.50392 82.488,25.4915 22.8391,16.8459 40.8391,43.8357 54.1821,81.0099zm-288.506 142.157l289.498 0c-3.82676,43.5117 -15.0033,76.3328 -33.1653,98.0178 -28.0022,33.8334 -64.3463,50.821 -108.83,50.821 -40.3329,0 -74.3485,-13.505 -101.845,-40.4948 -27.496,-27.0101 -42.6613,-63.172 -45.6579,-108.344zm6.33744 311l0 100.002 91.8221 0 0 -100.002 -91.8221 0zm181.984 0l0 100.002 91.8423 0 0 -100.002 -91.8423 0z"
     id="path795" /></glyph>
   <glyph
   unicode="ê"
   horiz-adv-x="556"
   id="glyph797"><path
     d="M420.843 167.001l90.8299 -11.1766c-14.3352,-53.1495 -40.8391,-94.3327 -79.5116,-123.651 -38.8346,-29.1765 -88.3193,-43.8357 -148.495,-43.8357 -75.8266,0 -136.002,23.325 -180.324,69.9953 -44.5038,46.6703 -66.6748,112.171 -66.6748,196.501 0,87.3271 22.4949,154.994 67.3227,203.163 45.01,48.1686 103.181,72.344 174.837,72.344 69.3474,0 126,-23.6692 169.835,-70.8457 43.9977,-47.1562 66.0066,-113.669 66.0066,-199.154 0,-5.34532 -0.161979,-13.1811 -0.506186,-23.5073l-386.665 0c3.1586,-56.9965 19.3363,-100.67 48.3306,-130.839 29.0146,-30.3306 65.0145,-45.496 108.344,-45.496 32.1529,0 59.6692,8.50392 82.488,25.4915 22.8391,16.8459 40.8391,43.8357 54.1821,81.0099zm-288.506 142.157l289.498 0c-3.82676,43.5117 -15.0033,76.3328 -33.1653,98.0178 -28.0022,33.8334 -64.3463,50.821 -108.83,50.821 -40.3329,0 -74.3485,-13.505 -101.845,-40.4948 -27.496,-27.0101 -42.6613,-63.172 -45.6579,-108.344zm144.506 356.841l-55.1742 -82.9942 -100.67 0 105.509 136.67 93.8266 0 109.842 -136.67 -99.6781 0 -53.6557 82.9942z"
     id="path799" /></glyph>
   <glyph
   unicode="é"
   horiz-adv-x="556"
   id="glyph801"><path
     d="M420.843 167.001l90.8299 -11.1766c-14.3352,-53.1495 -40.8391,-94.3327 -79.5116,-123.651 -38.8346,-29.1765 -88.3193,-43.8357 -148.495,-43.8357 -75.8266,0 -136.002,23.325 -180.324,69.9953 -44.5038,46.6703 -66.6748,112.171 -66.6748,196.501 0,87.3271 22.4949,154.994 67.3227,203.163 45.01,48.1686 103.181,72.344 174.837,72.344 69.3474,0 126,-23.6692 169.835,-70.8457 43.9977,-47.1562 66.0066,-113.669 66.0066,-199.154 0,-5.34532 -0.161979,-13.1811 -0.506186,-23.5073l-386.665 0c3.1586,-56.9965 19.3363,-100.67 48.3306,-130.839 29.0146,-30.3306 65.0145,-45.496 108.344,-45.496 32.1529,0 59.6692,8.50392 82.488,25.4915 22.8391,16.8459 40.8391,43.8357 54.1821,81.0099zm-288.506 142.157l289.498 0c-3.82676,43.5117 -15.0033,76.3328 -33.1653,98.0178 -28.0022,33.8334 -64.3463,50.821 -108.83,50.821 -40.3329,0 -74.3485,-13.505 -101.845,-40.4948 -27.496,-27.0101 -42.6613,-63.172 -45.6579,-108.344zm94.6567 273.846l65.0145 136.67 115.167 0 -107.352 -136.67 -72.83 0z"
     id="path803" /></glyph>
   <glyph
   unicode="è"
   horiz-adv-x="556"
   id="glyph805"><path
     d="M420.843 167.001l90.8299 -11.1766c-14.3352,-53.1495 -40.8391,-94.3327 -79.5116,-123.651 -38.8346,-29.1765 -88.3193,-43.8357 -148.495,-43.8357 -75.8266,0 -136.002,23.325 -180.324,69.9953 -44.5038,46.6703 -66.6748,112.171 -66.6748,196.501 0,87.3271 22.4949,154.994 67.3227,203.163 45.01,48.1686 103.181,72.344 174.837,72.344 69.3474,0 126,-23.6692 169.835,-70.8457 43.9977,-47.1562 66.0066,-113.669 66.0066,-199.154 0,-5.34532 -0.161979,-13.1811 -0.506186,-23.5073l-386.665 0c3.1586,-56.9965 19.3363,-100.67 48.3306,-130.839 29.0146,-30.3306 65.0145,-45.496 108.344,-45.496 32.1529,0 59.6692,8.50392 82.488,25.4915 22.8391,16.8459 40.8391,43.8357 54.1821,81.0099zm-288.506 142.157l289.498 0c-3.82676,43.5117 -15.0033,76.3328 -33.1653,98.0178 -28.0022,33.8334 -64.3463,50.821 -108.83,50.821 -40.3329,0 -74.3485,-13.505 -101.845,-40.4948 -27.496,-27.0101 -42.6613,-63.172 -45.6579,-108.344zm202.494 273.846l-70.6635 0 -112.839 136.67 117.678 0 65.8244 -136.67z"
     id="path807" /></glyph>
   <glyph
   unicode="ç"
   horiz-adv-x="500"
   id="glyph809"><path
     d="M404.341 190.002l86.335 -11.3386c-9.33406,-59.4869 -33.5095,-106.157 -72.506,-139.829 -38.8346,-33.6715 -86.6792,-50.4971 -143.332,-50.4971 -70.8457,0 -128.004,23.1631 -171.01,69.4892 -43.1675,46.3464 -64.8323,112.839 -64.8323,199.498 0,56.0044 9.33406,105.003 27.8402,147.017 18.6681,41.9932 46.8323,73.4981 84.8367,94.4947 37.8222,20.9966 79.1674,31.505 123.651,31.505 56.3486,0 102.513,-14.3352 138.168,-42.8435 35.8379,-28.4881 58.839,-68.821 69.0032,-121.323l-85.5049 -13.1811c-8.15971,34.8458 -22.4949,61.0055 -43.1675,78.6815 -20.6524,17.4938 -45.6579,26.3217 -74.9965,26.3217 -44.3216,0 -80.3215,-15.8335 -108,-47.6624 -27.658,-31.667 -41.487,-81.8401 -41.487,-150.499 0,-69.6714 13.3228,-120.33 40.1506,-151.997 26.6659,-31.505 61.5117,-47.3385 104.517,-47.3385 34.5016,0 63.1517,10.6704 86.335,31.8289 23.1631,21.1788 37.8222,53.6759 43.9977,97.6736zm-203.669 -255.34l25.3295 86.335 65.5004 0 -16.1777 -52.1574c27.6782,-3.34082 48.5128,-11.8447 62.5038,-25.6737 14.0112,-13.829 20.9966,-29.1563 20.9966,-46.1641 0,-24.3374 -11.6625,-46.0021 -35.1495,-64.6703 -23.5073,-18.6681 -58.677,-28.0022 -106.016,-28.0022 -26.6659,0 -49.9909,1.84252 -70.3193,5.83126l5.48705 57.1787c20.8346,-1.33633 36.1821,-2.00449 45.8402,-2.00449 30.6748,0 52.1574,4.17097 64.5083,12.6749 9.33406,6.49942 14.1529,14.4972 14.1529,23.9932 0,5.83126 -1.82227,10.9944 -5.66928,15.4893 -3.66478,4.67715 -10.6501,8.50392 -20.6524,11.8447 -10.1642,3.1586 -27.0101,5.00111 -50.3351,5.32507z"
     id="path811" /></glyph>
   <glyph
   unicode="æ"
   horiz-adv-x="889"
   id="glyph813"><path
     d="M846.666 158.659c-16.3397,-54.3238 -43.9977,-96.317 -82.9942,-126 -38.9965,-29.5005 -87.5094,-44.3216 -145.498,-44.3216 -41.3452,0 -77.5071,7.83575 -108.668,23.325 -30.9988,15.6715 -59.163,40.1709 -84.1685,73.3362 -33.8334,-33.1653 -68.1731,-57.6647 -102.837,-73.3362 -34.6636,-15.4893 -71.9998,-23.325 -112.009,-23.325 -55.9841,0 -99.4958,14.3352 -130.657,43.1675 -31.1608,28.8323 -46.6703,63.8199 -46.6703,105.165 0,28.0022 8.15971,54.3238 24.1754,78.8232 16.1574,24.6816 38.6523,43.3497 67.4847,56.0044 28.6704,12.6749 74.6725,23.1631 137.844,31.1608 48.8368,6.49942 89.8378,14.5174 123.003,24.0134 0.323959,8.15971 0.485938,14.8211 0.485938,20.0045 0,40.9808 -8.48367,69.8334 -25.4915,86.1528 -17.1698,16.5017 -46.9943,24.6614 -89.6758,24.6614 -28.3261,0 -52.1574,-3.32058 -71.8176,-10.1642 -19.4983,-6.82338 -33.8334,-16.6636 -43.1675,-29.1563 -9.33406,-12.5129 -17.0078,-32.6793 -23.1631,-60.3373l-85.5049 10.3262c9.15184,38.1664 22.1709,68.3351 39.3205,90.506 17.1698,22.3329 41.6692,39.8267 73.4981,52.5016 31.8492,12.8369 69.1854,19.1743 111.847,19.1743 54.3238,0 98.1595,-8.17996 131.325,-24.4994 19.1743,-9.33406 35.3318,-24.4994 48.3306,-45.334 20.8346,22.6569 44.5038,39.9887 70.8457,51.9954 26.3217,11.8245 58.1708,17.838 95.6691,17.838 52.6635,0 96.317,-12.8369 130.819,-38.3486 34.5016,-25.6535 59.8311,-59.325 75.6646,-101.318 16.0157,-42.0134 24.0134,-83.3384 24.0134,-124.015 0,-6.15522 -0.344206,-16.1574 -1.01237,-29.8245l-374.496 0c0.668165,-46.8323 6.33744,-80.8277 17.3318,-102.007 10.8324,-21.1586 28.3464,-38.8346 52.1776,-52.9875 23.9932,-14.1732 50.3351,-21.3408 78.9852,-21.3408 33.5095,0 61.8356,9.65802 85.1809,28.8323 23.1631,19.1743 39.3205,46.1641 47.9864,81.0099l91.8423 -11.6828zm-373.504 150.499l285.165 0c-4.65691,51.3475 -19.1541,89.0077 -43.9977,112.677 -24.6614,23.8312 -56.9965,35.6557 -96.6612,35.6557 -41.001,0 -74.6725,-12.9988 -100.832,-38.9965 -26.1597,-25.9977 -40.8391,-62.5038 -43.6737,-109.336zm-85.9908 -48.8165c-25.6737,-11.1766 -78.1753,-23.0011 -157.181,-35.676 -35.4937,-5.66928 -60.3171,-13.829 -74.6523,-25.0056 -19.3363,-15.3273 -28.8323,-35.3318 -28.8323,-59.9931 0,-23.1631 8.6659,-42.4993 25.8357,-58.3328 17.3318,-15.8335 42.3171,-23.6692 75.1584,-23.6692 37.4982,0 70.1573,9.17208 97.9975,27.8402 27.8402,18.4859 46.0021,41.6692 54.3441,69.3272 5.00111,16.8256 7.32957,51.9954 7.32957,105.509z"
     id="path815" /></glyph>
   <glyph
   unicode="å"
   horiz-adv-x="556"
   id="glyph817"><path
     d="M404.341 64.0021c-32.6793,-27.6782 -64.0021,-47.1765 -94.0088,-58.677 -30.1687,-11.3183 -62.5038,-16.9876 -97.0054,-16.9876 -56.9965,0 -100.67,13.829 -131.325,41.6692 -30.4926,27.82 -45.8402,63.4959 -45.8402,106.663 0,25.4915 5.66928,48.6546 17.3318,69.6714 11.5005,20.9966 26.6659,37.8222 45.334,50.4971 18.8301,12.6546 39.8469,22.3329 63.3339,28.8323 17.1698,4.49493 43.1675,8.98986 78.0133,13.1608 70.9875,8.50392 123.327,18.5061 156.816,30.3306 0.344206,12.0067 0.506186,19.6805 0.506186,22.8391 0,35.8379 -8.32169,61.1675 -25.0056,75.6646 -22.3329,20.0045 -55.8221,29.8245 -99.9818,29.8245 -41.3452,0 -71.8379,-7.14734 -91.6803,-21.6647 -19.6602,-14.4972 -34.1574,-40.1506 -43.6534,-77.001l-85.8491 11.8447c7.83575,36.6681 20.6726,66.4925 38.5106,88.9874 17.838,22.6771 43.8357,40.1709 77.6691,52.3396 33.8334,12.1687 72.992,18.3442 117.658,18.3442 44.3419,0 80.1595,-5.34532 107.838,-15.6715 27.658,-10.5084 48.0066,-23.5073 61.1675,-39.3407 12.9988,-15.8335 21.9887,-35.6557 27.334,-59.8311 2.83464,-15.0033 4.33295,-41.9932 4.33295,-80.9897l0 -117.172c0,-81.8401 1.82227,-133.512 5.66928,-154.994 3.66478,-21.685 11.1563,-42.4993 22.1507,-62.3418l-91.8221 0c-9.0101,18.1619 -15.0033,39.5027 -17.4938,64.0021zm-7.34981 196.339c-31.9909,-13.1811 -79.8153,-24.1754 -143.493,-33.3475 -36.1619,-5.16309 -61.8356,-10.9944 -76.6567,-17.4938 -15.0033,-6.49942 -26.6659,-15.9955 -34.6838,-28.6704 -8.15971,-12.4927 -12.3307,-26.3217 -12.3307,-41.6692 0,-23.487 9.0101,-42.9853 26.6659,-58.6568 17.676,-15.5095 43.6737,-23.3453 77.8311,-23.3453 33.8334,0 64.0021,7.34981 90.344,22.1709 26.3419,14.8414 45.8402,35.1698 58.1708,60.8435 9.49604,19.8222 14.1529,49.1607 14.1529,87.8333l0 32.3351zm-209.986 392.982c0,23.8515 8.6659,44.3419 25.9977,61.5117 17.4938,17.3318 38.0044,25.8357 61.8356,25.8357 23.9932,0 44.8278,-8.6659 61.9976,-25.9977 17.3318,-17.514 25.8357,-38.5106 25.8357,-63.3339 0,-25.0056 -8.50392,-46.1641 -25.8357,-63.4959 -17.1698,-17.1698 -37.8424,-25.8357 -61.5117,-25.8357 -24.4994,0 -45.334,8.6659 -62.4835,26.1597 -17.3318,17.3318 -25.8357,39.1585 -25.8357,65.1562zm36.992 -0.485938c0,-15.3475 5.16309,-28.1642 15.5095,-38.5106 10.1642,-10.4882 22.3329,-15.6513 36.3239,-15.6513 14.0112,0 26.1597,5.16309 36.3441,15.6513 10.3262,10.3464 15.3273,22.8391 15.3273,37.4982 0,14.6794 -5.00111,27.172 -15.0033,37.6805 -10.1642,10.3262 -22.3329,15.4893 -36.6681,15.4893 -13.991,0 -26.1597,-5.00111 -36.3239,-15.3273 -10.3464,-10.1642 -15.5095,-22.4949 -15.5095,-36.8301z"
     id="path819" /></glyph>
   <glyph
   unicode="ä"
   horiz-adv-x="556"
   id="glyph821"><path
     d="M404.341 64.0021c-32.6793,-27.6782 -64.0021,-47.1765 -94.0088,-58.677 -30.1687,-11.3183 -62.5038,-16.9876 -97.0054,-16.9876 -56.9965,0 -100.67,13.829 -131.325,41.6692 -30.4926,27.82 -45.8402,63.4959 -45.8402,106.663 0,25.4915 5.66928,48.6546 17.3318,69.6714 11.5005,20.9966 26.6659,37.8222 45.334,50.4971 18.8301,12.6546 39.8469,22.3329 63.3339,28.8323 17.1698,4.49493 43.1675,8.98986 78.0133,13.1608 70.9875,8.50392 123.327,18.5061 156.816,30.3306 0.344206,12.0067 0.506186,19.6805 0.506186,22.8391 0,35.8379 -8.32169,61.1675 -25.0056,75.6646 -22.3329,20.0045 -55.8221,29.8245 -99.9818,29.8245 -41.3452,0 -71.8379,-7.14734 -91.6803,-21.6647 -19.6602,-14.4972 -34.1574,-40.1506 -43.6534,-77.001l-85.8491 11.8447c7.83575,36.6681 20.6726,66.4925 38.5106,88.9874 17.838,22.6771 43.8357,40.1709 77.6691,52.3396 33.8334,12.1687 72.992,18.3442 117.658,18.3442 44.3419,0 80.1595,-5.34532 107.838,-15.6715 27.658,-10.5084 48.0066,-23.5073 61.1675,-39.3407 12.9988,-15.8335 21.9887,-35.6557 27.334,-59.8311 2.83464,-15.0033 4.33295,-41.9932 4.33295,-80.9897l0 -117.172c0,-81.8401 1.82227,-133.512 5.66928,-154.994 3.66478,-21.685 11.1563,-42.4993 22.1507,-62.3418l-91.8221 0c-9.0101,18.1619 -15.0033,39.5027 -17.4938,64.0021zm-7.34981 196.339c-31.9909,-13.1811 -79.8153,-24.1754 -143.493,-33.3475 -36.1619,-5.16309 -61.8356,-10.9944 -76.6567,-17.4938 -15.0033,-6.49942 -26.6659,-15.9955 -34.6838,-28.6704 -8.15971,-12.4927 -12.3307,-26.3217 -12.3307,-41.6692 0,-23.487 9.0101,-42.9853 26.6659,-58.6568 17.676,-15.5095 43.6737,-23.3453 77.8311,-23.3453 33.8334,0 64.0021,7.34981 90.344,22.1709 26.3419,14.8414 45.8402,35.1698 58.1708,60.8435 9.49604,19.8222 14.1529,49.1607 14.1529,87.8333l0 32.3351zm-258.823 359.817l0 100.002 91.8221 0 0 -100.002 -91.8221 0zm182.004 0l0 100.002 91.8221 0 0 -100.002 -91.8221 0z"
     id="path823" /></glyph>
   <glyph
   unicode="ã"
   horiz-adv-x="556"
   id="glyph825"><path
     d="M404.341 64.0021c-32.6793,-27.6782 -64.0021,-47.1765 -94.0088,-58.677 -30.1687,-11.3183 -62.5038,-16.9876 -97.0054,-16.9876 -56.9965,0 -100.67,13.829 -131.325,41.6692 -30.4926,27.82 -45.8402,63.4959 -45.8402,106.663 0,25.4915 5.66928,48.6546 17.3318,69.6714 11.5005,20.9966 26.6659,37.8222 45.334,50.4971 18.8301,12.6546 39.8469,22.3329 63.3339,28.8323 17.1698,4.49493 43.1675,8.98986 78.0133,13.1608 70.9875,8.50392 123.327,18.5061 156.816,30.3306 0.344206,12.0067 0.506186,19.6805 0.506186,22.8391 0,35.8379 -8.32169,61.1675 -25.0056,75.6646 -22.3329,20.0045 -55.8221,29.8245 -99.9818,29.8245 -41.3452,0 -71.8379,-7.14734 -91.6803,-21.6647 -19.6602,-14.4972 -34.1574,-40.1506 -43.6534,-77.001l-85.8491 11.8447c7.83575,36.6681 20.6726,66.4925 38.5106,88.9874 17.838,22.6771 43.8357,40.1709 77.6691,52.3396 33.8334,12.1687 72.992,18.3442 117.658,18.3442 44.3419,0 80.1595,-5.34532 107.838,-15.6715 27.658,-10.5084 48.0066,-23.5073 61.1675,-39.3407 12.9988,-15.8335 21.9887,-35.6557 27.334,-59.8311 2.83464,-15.0033 4.33295,-41.9932 4.33295,-80.9897l0 -117.172c0,-81.8401 1.82227,-133.512 5.66928,-154.994 3.66478,-21.685 11.1563,-42.4993 22.1507,-62.3418l-91.8221 0c-9.0101,18.1619 -15.0033,39.5027 -17.4938,64.0021zm-7.34981 196.339c-31.9909,-13.1811 -79.8153,-24.1754 -143.493,-33.3475 -36.1619,-5.16309 -61.8356,-10.9944 -76.6567,-17.4938 -15.0033,-6.49942 -26.6659,-15.9955 -34.6838,-28.6704 -8.15971,-12.4927 -12.3307,-26.3217 -12.3307,-41.6692 0,-23.487 9.0101,-42.9853 26.6659,-58.6568 17.676,-15.5095 43.6737,-23.3453 77.8311,-23.3453 33.8334,0 64.0021,7.34981 90.344,22.1709 26.3419,14.8414 45.8402,35.1698 58.1708,60.8435 9.49604,19.8222 14.1529,49.1607 14.1529,87.8333l0 32.3351zm-285.165 334.832c-0.323959,33.8334 8.84812,60.9852 27.8402,81.1517 18.5061,20.1664 42.1754,30.1687 71.1697,30.1687 20.1664,0 47.6624,-8.6659 82.488,-26.3217 19.3363,-9.84025 34.5016,-14.6794 46.0021,-14.6794 10.3464,0 18.3442,2.83464 23.8312,8.50392 5.66928,5.83126 9.51629,17.0078 11.8447,33.9954l63.3339 0c-0.830144,-37.154 -10.3464,-64.9942 -28.0022,-83.5004 -17.676,-18.4859 -40.3329,-27.82 -67.6669,-27.82 -20.5106,0 -47.5005,9.17208 -81.0099,27.334 -21.8267,11.6625 -37.8222,17.6558 -47.8244,17.6558 -11.1563,0 -20.0045,-3.98874 -26.8278,-11.8245 -7.16759,-7.83575 -10.6704,-19.3363 -10.3464,-34.6636l-64.8323 0z"
     id="path827" /></glyph>
   <glyph
   unicode="â"
   horiz-adv-x="556"
   id="glyph829"><path
     d="M404.341 64.0021c-32.6793,-27.6782 -64.0021,-47.1765 -94.0088,-58.677 -30.1687,-11.3183 -62.5038,-16.9876 -97.0054,-16.9876 -56.9965,0 -100.67,13.829 -131.325,41.6692 -30.4926,27.82 -45.8402,63.4959 -45.8402,106.663 0,25.4915 5.66928,48.6546 17.3318,69.6714 11.5005,20.9966 26.6659,37.8222 45.334,50.4971 18.8301,12.6546 39.8469,22.3329 63.3339,28.8323 17.1698,4.49493 43.1675,8.98986 78.0133,13.1608 70.9875,8.50392 123.327,18.5061 156.816,30.3306 0.344206,12.0067 0.506186,19.6805 0.506186,22.8391 0,35.8379 -8.32169,61.1675 -25.0056,75.6646 -22.3329,20.0045 -55.8221,29.8245 -99.9818,29.8245 -41.3452,0 -71.8379,-7.14734 -91.6803,-21.6647 -19.6602,-14.4972 -34.1574,-40.1506 -43.6534,-77.001l-85.8491 11.8447c7.83575,36.6681 20.6726,66.4925 38.5106,88.9874 17.838,22.6771 43.8357,40.1709 77.6691,52.3396 33.8334,12.1687 72.992,18.3442 117.658,18.3442 44.3419,0 80.1595,-5.34532 107.838,-15.6715 27.658,-10.5084 48.0066,-23.5073 61.1675,-39.3407 12.9988,-15.8335 21.9887,-35.6557 27.334,-59.8311 2.83464,-15.0033 4.33295,-41.9932 4.33295,-80.9897l0 -117.172c0,-81.8401 1.82227,-133.512 5.66928,-154.994 3.66478,-21.685 11.1563,-42.4993 22.1507,-62.3418l-91.8221 0c-9.0101,18.1619 -15.0033,39.5027 -17.4938,64.0021zm-7.34981 196.339c-31.9909,-13.1811 -79.8153,-24.1754 -143.493,-33.3475 -36.1619,-5.16309 -61.8356,-10.9944 -76.6567,-17.4938 -15.0033,-6.49942 -26.6659,-15.9955 -34.6838,-28.6704 -8.15971,-12.4927 -12.3307,-26.3217 -12.3307,-41.6692 0,-23.487 9.0101,-42.9853 26.6659,-58.6568 17.676,-15.5095 43.6737,-23.3453 77.8311,-23.3453 33.8334,0 64.0021,7.34981 90.344,22.1709 26.3419,14.8414 45.8402,35.1698 58.1708,60.8435 9.49604,19.8222 14.1529,49.1607 14.1529,87.8333l0 32.3351zm-120.654 405.657l-55.1742 -82.9942 -100.67 0 105.509 136.67 93.8266 0 109.842 -136.67 -99.6781 0 -53.6557 82.9942z"
     id="path831" /></glyph>
   <glyph
   unicode="á"
   horiz-adv-x="556"
   id="glyph833"><path
     d="M404.341 64.0021c-32.6793,-27.6782 -64.0021,-47.1765 -94.0088,-58.677 -30.1687,-11.3183 -62.5038,-16.9876 -97.0054,-16.9876 -56.9965,0 -100.67,13.829 -131.325,41.6692 -30.4926,27.82 -45.8402,63.4959 -45.8402,106.663 0,25.4915 5.66928,48.6546 17.3318,69.6714 11.5005,20.9966 26.6659,37.8222 45.334,50.4971 18.8301,12.6546 39.8469,22.3329 63.3339,28.8323 17.1698,4.49493 43.1675,8.98986 78.0133,13.1608 70.9875,8.50392 123.327,18.5061 156.816,30.3306 0.344206,12.0067 0.506186,19.6805 0.506186,22.8391 0,35.8379 -8.32169,61.1675 -25.0056,75.6646 -22.3329,20.0045 -55.8221,29.8245 -99.9818,29.8245 -41.3452,0 -71.8379,-7.14734 -91.6803,-21.6647 -19.6602,-14.4972 -34.1574,-40.1506 -43.6534,-77.001l-85.8491 11.8447c7.83575,36.6681 20.6726,66.4925 38.5106,88.9874 17.838,22.6771 43.8357,40.1709 77.6691,52.3396 33.8334,12.1687 72.992,18.3442 117.658,18.3442 44.3419,0 80.1595,-5.34532 107.838,-15.6715 27.658,-10.5084 48.0066,-23.5073 61.1675,-39.3407 12.9988,-15.8335 21.9887,-35.6557 27.334,-59.8311 2.83464,-15.0033 4.33295,-41.9932 4.33295,-80.9897l0 -117.172c0,-81.8401 1.82227,-133.512 5.66928,-154.994 3.66478,-21.685 11.1563,-42.4993 22.1507,-62.3418l-91.8221 0c-9.0101,18.1619 -15.0033,39.5027 -17.4938,64.0021zm-7.34981 196.339c-31.9909,-13.1811 -79.8153,-24.1754 -143.493,-33.3475 -36.1619,-5.16309 -61.8356,-10.9944 -76.6567,-17.4938 -15.0033,-6.49942 -26.6659,-15.9955 -34.6838,-28.6704 -8.15971,-12.4927 -12.3307,-26.3217 -12.3307,-41.6692 0,-23.487 9.0101,-42.9853 26.6659,-58.6568 17.676,-15.5095 43.6737,-23.3453 77.8311,-23.3453 33.8334,0 64.0021,7.34981 90.344,22.1709 26.3419,14.8414 45.8402,35.1698 58.1708,60.8435 9.49604,19.8222 14.1529,49.1607 14.1529,87.8333l0 32.3351zm-170.989 322.663l64.9942 136.67 115.167 0 -107.332 -136.67 -72.83 0z"
     id="path835" /></glyph>
   <glyph
   unicode="à"
   horiz-adv-x="556"
   id="glyph837"><path
     d="M404.341 64.0021c-32.6793,-27.6782 -64.0021,-47.1765 -94.0088,-58.677 -30.1687,-11.3183 -62.5038,-16.9876 -97.0054,-16.9876 -56.9965,0 -100.67,13.829 -131.325,41.6692 -30.4926,27.82 -45.8402,63.4959 -45.8402,106.663 0,25.4915 5.66928,48.6546 17.3318,69.6714 11.5005,20.9966 26.6659,37.8222 45.334,50.4971 18.8301,12.6546 39.8469,22.3329 63.3339,28.8323 17.1698,4.49493 43.1675,8.98986 78.0133,13.1608 70.9875,8.50392 123.327,18.5061 156.816,30.3306 0.344206,12.0067 0.506186,19.6805 0.506186,22.8391 0,35.8379 -8.32169,61.1675 -25.0056,75.6646 -22.3329,20.0045 -55.8221,29.8245 -99.9818,29.8245 -41.3452,0 -71.8379,-7.14734 -91.6803,-21.6647 -19.6602,-14.4972 -34.1574,-40.1506 -43.6534,-77.001l-85.8491 11.8447c7.83575,36.6681 20.6726,66.4925 38.5106,88.9874 17.838,22.6771 43.8357,40.1709 77.6691,52.3396 33.8334,12.1687 72.992,18.3442 117.658,18.3442 44.3419,0 80.1595,-5.34532 107.838,-15.6715 27.658,-10.5084 48.0066,-23.5073 61.1675,-39.3407 12.9988,-15.8335 21.9887,-35.6557 27.334,-59.8311 2.83464,-15.0033 4.33295,-41.9932 4.33295,-80.9897l0 -117.172c0,-81.8401 1.82227,-133.512 5.66928,-154.994 3.66478,-21.685 11.1563,-42.4993 22.1507,-62.3418l-91.8221 0c-9.0101,18.1619 -15.0033,39.5027 -17.4938,64.0021zm-7.34981 196.339c-31.9909,-13.1811 -79.8153,-24.1754 -143.493,-33.3475 -36.1619,-5.16309 -61.8356,-10.9944 -76.6567,-17.4938 -15.0033,-6.49942 -26.6659,-15.9955 -34.6838,-28.6704 -8.15971,-12.4927 -12.3307,-26.3217 -12.3307,-41.6692 0,-23.487 9.0101,-42.9853 26.6659,-58.6568 17.676,-15.5095 43.6737,-23.3453 77.8311,-23.3453 33.8334,0 64.0021,7.34981 90.344,22.1709 26.3419,14.8414 45.8402,35.1698 58.1708,60.8435 9.49604,19.8222 14.1529,49.1607 14.1529,87.8333l0 32.3351zm-47.9864 322.663l-70.6635 0 -112.839 136.67 117.658 0 65.8446 -136.67z"
     id="path839" /></glyph>
   <glyph
   unicode="ÿ"
   horiz-adv-x="500"
   id="glyph841"><path
     d="M61.9976 -199.66l-9.84025 82.488c19.3363,-5.16309 35.9999,-7.83575 50.3351,-7.83575 19.4983,0 35.1698,3.34082 46.8323,9.84025 11.8447,6.49942 21.3408,15.5095 28.8323,27.334 5.66928,8.6659 14.5174,30.4926 26.8481,65.3384 1.66029,5.00111 4.33295,11.9865 7.83575,21.5028l-196.683 519.488 94.677 0 108 -300.168c13.829,-38.1664 26.5039,-78.1551 37.4982,-120.168 10.1642,40.3329 22.1709,79.6736 36.1619,118.164l110.834 302.173 87.8333 0 -197.169 -527.324c-21.1586,-56.9965 -37.6602,-96.1753 -49.3227,-117.678 -15.6715,-28.9943 -33.5095,-50.1529 -53.6759,-63.6579 -20.3284,-13.505 -44.3216,-20.3284 -72.3238,-20.3284 -17.0078,0 -35.8379,3.66478 -56.6725,10.8324zm56.6725 819.818l0 100.002 91.8221 0 0 -100.002 -91.8221 0zm182.004 0l0 100.002 91.8221 0 0 -100.002 -91.8221 0z"
     id="path843" /></glyph>
   <glyph
   unicode="þ"
   horiz-adv-x="556"
   id="glyph845"><path
     d="M66.0066 -198.668l0 914.495 87.8333 0 0 -251.999c23.6692,25.1675 44.4836,41.6692 62.4835,49.8289 23.3453,11.0146 50.1731,16.6839 80.0178,16.6839 44.3216,0 83.3181,-11.5005 117.152,-34.1777 34.0157,-22.8391 59.5072,-54.992 76.677,-96.4992 17.3318,-41.5072 25.9977,-87.0032 25.9977,-136.488 0,-53.352 -9.49604,-101.176 -28.6704,-143.514 -18.9921,-42.3374 -46.6703,-74.8345 -82.9942,-97.4913 -36.3441,-22.4949 -74.3283,-33.8334 -113.993,-33.8334 -27.0101,0 -52.0156,5.32507 -75.1787,15.9955 -17.4938,8.50392 -38.1664,25.0056 -61.4914,49.343l0 -252.344 -87.8333 0zm79.4914 455c0,-66.6748 13.505,-115.997 40.4948,-148.009 27.0101,-31.8289 59.8311,-47.8244 98.1798,-47.8244 38.9965,0 72.4858,16.5017 100.326,49.6669 27.8402,33.0033 41.8312,84.1685 41.8312,153.496 0,66.1686 -13.667,115.512 -40.8391,148.495 -27.1518,32.8413 -59.6489,49.343 -97.3294,49.343 -37.4982,0 -70.6635,-17.4938 -99.4958,-52.5016 -28.8323,-35.0078 -43.1675,-85.9908 -43.1675,-152.666z"
     id="path847" /></glyph>
   <glyph
   unicode="ý"
   horiz-adv-x="500"
   id="glyph849"><path
     d="M61.9976 -199.66l-9.84025 82.488c19.3363,-5.16309 35.9999,-7.83575 50.3351,-7.83575 19.4983,0 35.1698,3.34082 46.8323,9.84025 11.8447,6.49942 21.3408,15.5095 28.8323,27.334 5.66928,8.6659 14.5174,30.4926 26.8481,65.3384 1.66029,5.00111 4.33295,11.9865 7.83575,21.5028l-196.683 519.488 94.677 0 108 -300.168c13.829,-38.1664 26.5039,-78.1551 37.4982,-120.168 10.1642,40.3329 22.1709,79.6736 36.1619,118.164l110.834 302.173 87.8333 0 -197.169 -527.324c-21.1586,-56.9965 -37.6602,-96.1753 -49.3227,-117.678 -15.6715,-28.9943 -33.5095,-50.1529 -53.6759,-63.6579 -20.3284,-13.505 -44.3216,-20.3284 -72.3238,-20.3284 -17.0078,0 -35.8379,3.66478 -56.6725,10.8324zm143.008 782.664l64.9942 136.67 115.167 0 -107.332 -136.67 -72.83 0z"
     id="path851" /></glyph>
   <glyph
   unicode="ü"
   horiz-adv-x="556"
   id="glyph853"><path
     d="M405.839 0l0 76.1708c-40.5151,-58.677 -95.3451,-87.8333 -164.672,-87.8333 -30.4926,0 -59.163,5.83126 -85.6668,17.4938 -26.5039,11.6625 -46.1641,26.5039 -59.001,44.1596 -12.9988,17.838 -22.0089,39.5027 -27.172,65.1765 -3.5028,17.3318 -5.32507,44.6658 -5.32507,82.164l0 321.165 87.8333 0 0 -287.493c0,-46.0021 1.82227,-76.839 5.32507,-92.8344 5.66928,-23.1631 17.3318,-41.163 35.1698,-54.5061 18,-13.1608 40.1709,-19.6602 66.5128,-19.6602 26.3217,0 50.983,6.6614 74.1663,20.1664 23.1631,13.505 39.4825,31.9909 48.9988,55.1742 9.65802,23.325 14.4972,57.1585 14.4972,101.318l0 277.835 87.8333 0 0 -518.496 -78.4993 0zm-268.501 620.158l0 100.002 91.8221 0 0 -100.002 -91.8221 0zm182.004 0l0 100.002 91.8221 0 0 -100.002 -91.8221 0z"
     id="path855" /></glyph>
   <glyph
   unicode="û"
   horiz-adv-x="556"
   id="glyph857"><path
     d="M405.839 0l0 76.1708c-40.5151,-58.677 -95.3451,-87.8333 -164.672,-87.8333 -30.4926,0 -59.163,5.83126 -85.6668,17.4938 -26.5039,11.6625 -46.1641,26.5039 -59.001,44.1596 -12.9988,17.838 -22.0089,39.5027 -27.172,65.1765 -3.5028,17.3318 -5.32507,44.6658 -5.32507,82.164l0 321.165 87.8333 0 0 -287.493c0,-46.0021 1.82227,-76.839 5.32507,-92.8344 5.66928,-23.1631 17.3318,-41.163 35.1698,-54.5061 18,-13.1608 40.1709,-19.6602 66.5128,-19.6602 26.3217,0 50.983,6.6614 74.1663,20.1664 23.1631,13.505 39.4825,31.9909 48.9988,55.1742 9.65802,23.325 14.4972,57.1585 14.4972,101.318l0 277.835 87.8333 0 0 -518.496 -78.4993 0zm-130.333 665.999l-55.1742 -82.9942 -100.67 0 105.509 136.67 93.8266 0 109.842 -136.67 -99.6781 0 -53.6557 82.9942z"
     id="path859" /></glyph>
   <glyph
   unicode="ú"
   horiz-adv-x="556"
   id="glyph861"><path
     d="M405.839 0l0 76.1708c-40.5151,-58.677 -95.3451,-87.8333 -164.672,-87.8333 -30.4926,0 -59.163,5.83126 -85.6668,17.4938 -26.5039,11.6625 -46.1641,26.5039 -59.001,44.1596 -12.9988,17.838 -22.0089,39.5027 -27.172,65.1765 -3.5028,17.3318 -5.32507,44.6658 -5.32507,82.164l0 321.165 87.8333 0 0 -287.493c0,-46.0021 1.82227,-76.839 5.32507,-92.8344 5.66928,-23.1631 17.3318,-41.163 35.1698,-54.5061 18,-13.1608 40.1709,-19.6602 66.5128,-19.6602 26.3217,0 50.983,6.6614 74.1663,20.1664 23.1631,13.505 39.4825,31.9909 48.9988,55.1742 9.65802,23.325 14.4972,57.1585 14.4972,101.318l0 277.835 87.8333 0 0 -518.496 -78.4993 0zm-184.677 583.004l64.9942 136.67 115.167 0 -107.332 -136.67 -72.83 0z"
     id="path863" /></glyph>
   <glyph
   unicode="ù"
   horiz-adv-x="556"
   id="glyph865"><path
     d="M405.839 0l0 76.1708c-40.5151,-58.677 -95.3451,-87.8333 -164.672,-87.8333 -30.4926,0 -59.163,5.83126 -85.6668,17.4938 -26.5039,11.6625 -46.1641,26.5039 -59.001,44.1596 -12.9988,17.838 -22.0089,39.5027 -27.172,65.1765 -3.5028,17.3318 -5.32507,44.6658 -5.32507,82.164l0 321.165 87.8333 0 0 -287.493c0,-46.0021 1.82227,-76.839 5.32507,-92.8344 5.66928,-23.1631 17.3318,-41.163 35.1698,-54.5061 18,-13.1608 40.1709,-19.6602 66.5128,-19.6602 26.3217,0 50.983,6.6614 74.1663,20.1664 23.1631,13.505 39.4825,31.9909 48.9988,55.1742 9.65802,23.325 14.4972,57.1585 14.4972,101.318l0 277.835 87.8333 0 0 -518.496 -78.4993 0zm-50.3351 583.004l-70.6635 0 -112.839 136.67 117.658 0 65.8446 -136.67z"
     id="path867" /></glyph>
   <glyph
   unicode="ø"
   horiz-adv-x="610"
   id="glyph869"><path
     d="M448.663 487.841l48.3306 62.4835 47.0145 -34.1574 -52.3396 -67.5049c20.4904,-28.0022 34.5016,-53.3317 41.9932,-76.1708 10.1642,-32.4971 15.1653,-70.3193 15.1653,-113.649 0,-97.6736 -27.496,-169.511 -82.488,-215.352 -44.6658,-36.8301 -98.3417,-55.154 -161.169,-55.154 -51.6714,0 -97.5116,12.9988 -137.176,38.9965l-51.3272 -65.8244 -45.8402 34.6636 52.6838 68.821c-19.1743,22.0089 -32.8413,44.1799 -41.001,66.3306 -12.9988,35.514 -19.4983,75.6849 -19.4983,120.675 0,97.9975 23.8312,168.843 71.8176,212.659 47.8447,43.6737 104.011,65.6826 168.337,65.6826 26.8278,0 51.3272,-3.5028 73.8424,-10.3464 22.3329,-6.82338 46.3261,-17.4938 71.6556,-32.1529zm-49.3227 -64.5083c-29.5005,22.8391 -60.6815,34.1574 -93.1786,34.1574 -43.3295,0 -79.6534,-16.4814 -108.83,-49.8289 -29.3385,-33.1653 -43.9977,-82.6702 -43.9977,-148.333 0,-48.8368 8.50392,-89.6556 25.3295,-122.659l220.677 286.663zm36.6681 -47.3385l-219.178 -284.659c25.3295,-20.5106 53.9999,-30.8368 85.8288,-30.8368 45.334,0 82.6702,16.6636 112.171,49.8289 29.5005,33.1653 44.1799,83.0144 44.1799,149.507 0,24.6614 -2.00449,46.3261 -5.85151,64.8323 -2.65241,13.667 -8.32169,30.8368 -17.1496,51.3272z"
     id="path871" /></glyph>
   <glyph
   unicode="÷"
   horiz-adv-x="548"
   id="glyph873"><path
     d="M224.159 450.161l0 100.164 100.002 0 0 -100.164 -100.002 0zm286.501 -138.168l-472.494 0 0 82.0021 472.494 0 0 -82.0021zm-286.501 -156.168l0 100.002 100.002 0 0 -100.002 -100.002 0z"
     id="path875" /></glyph>
   <glyph
   unicode="ö"
   horiz-adv-x="556"
   id="glyph877"><path
     d="M33.1653 259.329c0,96.0133 26.6659,167.163 80.1595,213.347 44.5038,38.3284 98.8479,57.6647 163.012,57.6647 71.3317,0 129.665,-23.3453 174.837,-70.1776 45.334,-46.6703 67.8289,-111.158 67.8289,-193.505 0,-66.8165 -10.0022,-119.318 -30.0067,-157.484 -20.0045,-38.3486 -49.1607,-68.0111 -87.3271,-89.1697 -38.3284,-21.1788 -79.9976,-31.667 -125.332,-31.667 -72.506,0 -131.163,23.1631 -176.011,69.8334 -44.8278,46.4881 -67.1607,113.487 -67.1607,201.158zm90.344 0c0,-66.4925 14.4972,-116.159 43.4915,-149.163 28.9943,-33.1653 65.5004,-49.6669 109.336,-49.6669 43.6534,0 79.9976,16.6636 108.992,49.8289 28.8323,33.1653 43.3295,83.8446 43.3295,151.835 0,64.1641 -14.4972,112.839 -43.6534,145.842 -29.1765,33.0033 -65.3384,49.4847 -108.668,49.4847 -43.8357,0 -80.3418,-16.4814 -109.336,-49.3227 -28.9943,-32.8413 -43.4915,-82.5083 -43.4915,-148.839zm15.6513 360.829l0 100.002 91.8423 0 0 -100.002 -91.8423 0zm182.004 0l0 100.002 91.8423 0 0 -100.002 -91.8423 0z"
     id="path879" /></glyph>
   <glyph
   unicode="õ"
   horiz-adv-x="556"
   id="glyph881"><path
     d="M33.1653 259.329c0,96.0133 26.6659,167.163 80.1595,213.347 44.5038,38.3284 98.8479,57.6647 163.012,57.6647 71.3317,0 129.665,-23.3453 174.837,-70.1776 45.334,-46.6703 67.8289,-111.158 67.8289,-193.505 0,-66.8165 -10.0022,-119.318 -30.0067,-157.484 -20.0045,-38.3486 -49.1607,-68.0111 -87.3271,-89.1697 -38.3284,-21.1788 -79.9976,-31.667 -125.332,-31.667 -72.506,0 -131.163,23.1631 -176.011,69.8334 -44.8278,46.4881 -67.1607,113.487 -67.1607,201.158zm90.344 0c0,-66.4925 14.4972,-116.159 43.4915,-149.163 28.9943,-33.1653 65.5004,-49.6669 109.336,-49.6669 43.6534,0 79.9976,16.6636 108.992,49.8289 28.8323,33.1653 43.3295,83.8446 43.3295,151.835 0,64.1641 -14.4972,112.839 -43.6534,145.842 -29.1765,33.0033 -65.3384,49.4847 -108.668,49.4847 -43.8357,0 -80.3418,-16.4814 -109.336,-49.3227 -28.9943,-32.8413 -43.4915,-82.5083 -43.4915,-148.839zm-10.6704 335.844c-0.344206,33.8334 8.82788,60.9852 27.82,81.1517 18.5061,20.1664 42.1754,30.1687 71.1697,30.1687 20.1664,0 47.6624,-8.6659 82.5083,-26.3217 19.3363,-9.84025 34.5016,-14.6794 46.0021,-14.6794 10.3262,0 18.3239,2.83464 23.8312,8.50392 5.66928,5.83126 9.49604,17.0078 11.8245,33.9954l63.3339 0c-0.830144,-37.154 -10.3262,-64.9942 -28.0022,-83.5004 -17.6558,-18.4859 -40.3329,-27.82 -67.6669,-27.82 -20.4904,0 -47.5005,9.17208 -80.9897,27.334 -21.8267,11.6625 -37.8424,17.6558 -47.8447,17.6558 -11.1563,0 -19.9842,-3.98874 -26.8278,-11.8245 -7.16759,-7.83575 -10.6704,-19.3363 -10.3262,-34.6636l-64.8323 0z"
     id="path883" /></glyph>
   <glyph
   unicode="ô"
   horiz-adv-x="556"
   id="glyph885"><path
     d="M33.1653 259.329c0,96.0133 26.6659,167.163 80.1595,213.347 44.5038,38.3284 98.8479,57.6647 163.012,57.6647 71.3317,0 129.665,-23.3453 174.837,-70.1776 45.334,-46.6703 67.8289,-111.158 67.8289,-193.505 0,-66.8165 -10.0022,-119.318 -30.0067,-157.484 -20.0045,-38.3486 -49.1607,-68.0111 -87.3271,-89.1697 -38.3284,-21.1788 -79.9976,-31.667 -125.332,-31.667 -72.506,0 -131.163,23.1631 -176.011,69.8334 -44.8278,46.4881 -67.1607,113.487 -67.1607,201.158zm90.344 0c0,-66.4925 14.4972,-116.159 43.4915,-149.163 28.9943,-33.1653 65.5004,-49.6669 109.336,-49.6669 43.6534,0 79.9976,16.6636 108.992,49.8289 28.8323,33.1653 43.3295,83.8446 43.3295,151.835 0,64.1641 -14.4972,112.839 -43.6534,145.842 -29.1765,33.0033 -65.3384,49.4847 -108.668,49.4847 -43.8357,0 -80.3418,-16.4814 -109.336,-49.3227 -28.9943,-32.8413 -43.4915,-82.5083 -43.4915,-148.839zm153.82 406.67l-55.154 -82.9942 -100.67 0 105.489 136.67 93.8468 0 109.822 -136.67 -99.6578 0 -53.6759 82.9942z"
     id="path887" /></glyph>
   <glyph
   unicode="ó"
   horiz-adv-x="556"
   id="glyph889"><path
     d="M33.1653 259.329c0,96.0133 26.6659,167.163 80.1595,213.347 44.5038,38.3284 98.8479,57.6647 163.012,57.6647 71.3317,0 129.665,-23.3453 174.837,-70.1776 45.334,-46.6703 67.8289,-111.158 67.8289,-193.505 0,-66.8165 -10.0022,-119.318 -30.0067,-157.484 -20.0045,-38.3486 -49.1607,-68.0111 -87.3271,-89.1697 -38.3284,-21.1788 -79.9976,-31.667 -125.332,-31.667 -72.506,0 -131.163,23.1631 -176.011,69.8334 -44.8278,46.4881 -67.1607,113.487 -67.1607,201.158zm90.344 0c0,-66.4925 14.4972,-116.159 43.4915,-149.163 28.9943,-33.1653 65.5004,-49.6669 109.336,-49.6669 43.6534,0 79.9976,16.6636 108.992,49.8289 28.8323,33.1653 43.3295,83.8446 43.3295,151.835 0,64.1641 -14.4972,112.839 -43.6534,145.842 -29.1765,33.0033 -65.3384,49.4847 -108.668,49.4847 -43.8357,0 -80.3418,-16.4814 -109.336,-49.3227 -28.9943,-32.8413 -43.4915,-82.5083 -43.4915,-148.839zm103.991 323.675l64.9942 136.67 115.167 0 -107.332 -136.67 -72.83 0z"
     id="path891" /></glyph>
   <glyph
   unicode="ò"
   horiz-adv-x="556"
   id="glyph893"><path
     d="M33.1653 259.329c0,96.0133 26.6659,167.163 80.1595,213.347 44.5038,38.3284 98.8479,57.6647 163.012,57.6647 71.3317,0 129.665,-23.3453 174.837,-70.1776 45.334,-46.6703 67.8289,-111.158 67.8289,-193.505 0,-66.8165 -10.0022,-119.318 -30.0067,-157.484 -20.0045,-38.3486 -49.1607,-68.0111 -87.3271,-89.1697 -38.3284,-21.1788 -79.9976,-31.667 -125.332,-31.667 -72.506,0 -131.163,23.1631 -176.011,69.8334 -44.8278,46.4881 -67.1607,113.487 -67.1607,201.158zm90.344 0c0,-66.4925 14.4972,-116.159 43.4915,-149.163 28.9943,-33.1653 65.5004,-49.6669 109.336,-49.6669 43.6534,0 79.9976,16.6636 108.992,49.8289 28.8323,33.1653 43.3295,83.8446 43.3295,151.835 0,64.1641 -14.4972,112.839 -43.6534,145.842 -29.1765,33.0033 -65.3384,49.4847 -108.668,49.4847 -43.8357,0 -80.3418,-16.4814 -109.336,-49.3227 -28.9943,-32.8413 -43.4915,-82.5083 -43.4915,-148.839zm211.829 323.675l-70.6635 0 -112.839 136.67 117.658 0 65.8446 -136.67z"
     id="path895" /></glyph>
   <glyph
   unicode="ñ"
   horiz-adv-x="556"
   id="glyph897"><path
     d="M66.0066 0l0 518.496 78.9852 0 0 -73.6601c38.1664,56.9965 93.1786,85.5049 165.017,85.5049 31.3228,0 59.9931,-5.66928 86.1528,-16.8459 26.3419,-11.3183 45.8402,-25.9977 58.839,-44.3216 13.1608,-18.1822 22.1709,-39.8469 27.496,-64.8323 3.17885,-16.3397 4.83913,-44.848 4.83913,-85.5049l0 -318.836 -87.9953 0 0 315.495c0,35.676 -3.34082,62.5038 -10.1642,80.3418 -6.84363,17.6558 -19.0123,31.8289 -36.3441,42.3374 -17.4938,10.6501 -37.8222,15.9955 -61.3294,15.9955 -37.4982,0 -69.6714,-12.0067 -97.0054,-35.676 -27.172,-23.8312 -40.6568,-68.821 -40.6568,-135.334l0 -283.16 -87.8333 0zm61.9976 595.173c-0.344206,33.8334 8.82788,60.9852 27.82,81.1517 18.5061,20.1664 42.1754,30.1687 71.1697,30.1687 20.1664,0 47.6827,-8.6659 82.5083,-26.3217 19.3363,-9.84025 34.5016,-14.6794 46.0021,-14.6794 10.3262,0 18.3239,2.83464 23.8312,8.50392 5.66928,5.83126 9.49604,17.0078 11.8245,33.9954l63.3339 0c-0.830144,-37.154 -10.3262,-64.9942 -28.0022,-83.5004 -17.6558,-18.4859 -40.3329,-27.82 -67.6669,-27.82 -20.4904,0 -47.5005,9.17208 -80.9897,27.334 -21.8267,11.6625 -37.8424,17.6558 -47.8447,17.6558 -11.1563,0 -19.9842,-3.98874 -26.8278,-11.8245 -7.16759,-7.83575 -10.6704,-19.3363 -10.3262,-34.6636l-64.8323 0z"
     id="path899" /></glyph>
   <glyph
   unicode="ð"
   horiz-adv-x="556"
   id="glyph901"><path
     d="M150.337 715.827l105.995 0c23.5073,-17.6558 43.8357,-34.1574 61.0055,-49.8289l104.497 49.8289 21.9887 -49.8289 -83.9863 -40.4948c104.153,-119.844 156.33,-243.496 156.33,-371.176 0,-82.326 -22.6771,-147.32 -67.9908,-195.003 -45.172,-47.6624 -102.837,-71.4937 -172.852,-71.4937 -82.9942,0 -147.664,31.505 -194.315,94.677 -30.1687,41.325 -45.334,97.9975 -45.334,169.997 0,84.8367 20.9966,150.499 62.9897,196.663 41.9932,46.3261 94.4947,69.3272 157.667,69.3272 18.8301,0 35.4937,-1.82227 49.8289,-5.83126 14.3352,-3.82676 32.1732,-11.5005 53.6759,-23.0011 -11.6625,23.8312 -22.0089,42.3374 -30.6748,55.4982 -8.82788,13.1811 -21.6647,29.3385 -38.6523,48.6748l-134.18 -62.1798 -21.5028 50.3351 116.666 53.3317c-31.667,29.1765 -65.3182,56.0044 -101.156,80.5038zm274.494 -457.491c0,62.5038 -14.8414,110.166 -44.1596,143.332 -29.5005,33.0033 -65.6624,49.505 -108.668,49.505 -42.3374,0 -77.3452,-16.5017 -105.003,-49.505 -27.658,-33.1653 -41.5072,-83.6624 -41.5072,-151.673 0,-63.1517 14.1732,-110.652 42.6816,-142.501 28.4881,-31.9909 64.1641,-47.9864 106.663,-47.9864 41.6692,0 77.1629,16.8256 106.319,50.6591 29.0146,33.6715 43.6737,82.9942 43.6737,148.171z"
     id="path903" /></glyph>
  </font>
</defs>
</svg>
